Торрент файл
скачать торрент магнет ссылка Добавлен: 03 ноя 2014, 12:04
Размер: 4.17 ГБ
Сидеров: 44
Личеров: 7
Статус: (Dracon)
Автор

СообщениеДобавлено: 03 ноя 2014, 12:04 

Не в сети
Зам. Админа
Аватара пользователя
Дата регистрации:
02 дек 2010, 12:39
Спасибо: 12461 / 214
Сообщения: 27968
Гангста

Год выхода: 2014
Жанр: драма, криминал
Режиссер: Рэймонд Де Фелитта / Raymond De Felitta
В ролях: Майкл Питт, Нина Арианда, Энди Гарсиа, Рэй Романо, Гриффин Данн, Майкл Рисполи, Юл Васкес, Фрэнк Уэйли, Брайан Тарантина, Аида Туртурро

О фильме:
Парочка молодых влюбленных, мечтая скопить деньги на свадьбу, решает совершить серию дерзких ограблений клубов, где собираются мафиози. Их план прост — чтобы они ни натворили, мафия не будет жаловаться в полицию. Местные «братаны» не могут поверить своим глазам, когда их обчищают до нитки какие-то «сопляки». Больше того, случайно, у них похищают важную улику, которой очень интересуется ФБР. Теперь за налетчиками начинается настоящая охота…


Страна: США
Студия: Exchange, The
Продолжительность: 01:39:54
Перевод: Профессиональный (дублированный) [Лицензия]

Кодек: MPEG2
Качество: DVD5 R5
Видео: PAL 16:9 (720x576(0.582)) MPEG Video, 25,000 кадр/сек, 6034 Кбит/сек
Звук: Russian (Dolby AC3, 6 ch) 448 Кбит/сек, 48,0 КГц
Субтитры: нет

Title: Gangsta.Love.2014.D.DVD5
Size: 4.17 Gb ( 4 377 666,00 KBytes ) - DVD-5
Enabled regions: 1, 2, 3, 4, 5, 6, 7, 8

VTS_01 :
Play Length: 00:00:19
Video: PAL 16:9 (720x576) VBR, Auto Pan&Scan, Auto Letterboxed
Audio:
Not specified (Dolby AC3, 2 ch)

VTS_02 :
Play Length: 01:39:54
Video: PAL 16:9 (720x576) VBR, Auto Pan&Scan, Auto Letterboxed
Audio:
Not specified (Dolby AC3, 6 ch)

* Menus Information *

VIDEO_TS Menu
Video:
PAL 16:9 (720x576) VBR
Auto Pan&Scan, Auto Letterboxed
Russian Language Unit :
Title Menu

VTS_01 Menu
Video:
PAL 16:9 (720x576) VBR
Auto Pan&Scan, Auto Letterboxed
Audio:
Not specified (Dolby AC3, 6 ch)
Russian Language Unit :
Root Menu

VTS_02 Menu
Video:
PAL 4:3 (720x576) VBR
Russian Language Unit :
Root Menu
Общее
Полное имя : F:Новинки 2014Gangsta.Love.2014.D.DVD5VIDEO_TSVTS_02_1.VOB
Формат : MPEG-PS
Размер файла : 1024 Мбайт
Продолжительность : 21 м.
Режим общего битрейта : Переменный
Общий поток : 6613 Кбит/сек

Видео
Идентификатор : 224 (0xE0)
Формат : MPEG Video
Версия формата : Version 2
Профиль формата : Main@Main
Параметр BVOP формата : Да
Параметр матрицы формата : Выборочная
Параметр GOP формата : M=3, N=15
Format_Settings_PictureStructure : Frame
Продолжительность : 21 м.
Вид битрейта : Переменный
Битрейт : 6034 Кбит/сек
Максимальный битрейт : 9000 Кбит/сек
Ширина : 720 пикселей
Высота : 576 пикселей
Соотношение сторон : 16:9
Частота кадров : 25,000 кадров/сек
Стандарт вещания : PAL
Цветовое пространство : YUV
Субдискретизация насыщенности : 4:2:0
Битовая глубина : 8 бит
Тип развёртки : Чересстрочная
Порядок развёртки : Верхнее поле первое
Метод сжатия : С потерями
Бит/(Пиксели*Кадры) : 0.582
Временной код первого кадра : 00:00:00:00
Оригинал временного кода : Group of pictures header
Размер потока : 934 Мбайт (91%)

Аудио
Идентификатор : 189 (0xBD)-128 (0x80)
Формат : AC-3
Формат/Информация : Audio Coding 3
Расширение режима : CM (complete main)
Параметр Endianness формата : Big
Режим смешивания : DVD-Video
Продолжительность : 21 м.
Вид битрейта : Постоянный
Битрейт : 448 Кбит/сек
Каналы : 6 каналов
Расположение каналов : Front: L C R, Side: L R, LFE
Частота : 48,0 КГц
Битовая глубина : 16 бит
Метод сжатия : С потерями
Размер потока : 69,3 Мбайт (7%)






реклама партнёра


Вернуться к началу
 Профиль  
 
   Похожие торренты   Автор   Торрент   Размер 
В этой теме нет новых непрочитанных сообщений. Гангста Love / Rob the Mob [драма, криминал, 2014] HDRip, Dub [Лицензия]

Dracon

248 | 7

2.05 ГБ

В этой теме нет новых непрочитанных сообщений. Гангста Love / Rob the Mob [драма, криминал, 2014] BDRip 720p, Dub+Sub [Лицензия]

Dracon

328 | 18

4.82 ГБ

В этой теме нет новых непрочитанных сообщений. Гангста Love / Rob the Mob [драма, криминал, 2014] Blu-Ray Remux 1080p, Dub+Sub [Лицензия]

Dracon

32 | 2

14.04 ГБ

В этой теме нет новых непрочитанных сообщений. Гангста Love / Rob the Mob [драма, криминал, 2014] HDRip-AVC, dub [Чистый звук]

Dracon

1 | 5

1.35 ГБ

В этой теме нет новых непрочитанных сообщений. Гангста Love / Rob the Mob [драма, криминал, 2014] WEB-DL 1080p, dub [Чистый звук]

Dracon

304 | 6

2.93 ГБ

В этой теме нет новых непрочитанных сообщений. Гангста Love / Rob the Mob [драма, криминал, 2014] WEB-DLRip, dub [Чистый звук]

Dracon

2257 | 34

1.36 ГБ

В этой теме нет новых непрочитанных сообщений. Гангста Love / Rob the Mob [драма, криминал, 2014] BDRip 1080p, dub [Чистый звук]

Dracon

406 | 14

7.93 ГБ


Начать новую тему Ответить на тему  [ 1 сообщение ] 




Для Мосгорсуда, Роскомнадзора и рекламодателей:: mosgorsud-torrent[собачка]yandex.ru