Торрент файл
скачать торрент магнет ссылка Добавлен: 16 окт 2014, 11:33
Размер: 4.22 ГБ
Сидеров: 1
Личеров: 4
Автор

СообщениеДобавлено: 16 окт 2014, 11:33 

Не в сети
Зам. Админа
Аватара пользователя
Дата регистрации:
02 дек 2010, 12:39
Спасибо: 12651 / 214
Сообщения: 28010
Год выхода: 2014
Жанр: Фантастика,Драма
Режиссер: Филлип Нойс / Phillip Noyce
В ролях: Брентон Туэйтс, Джефф Бриджес, Мэрил Стрип, Одейя Раш, Кэти Холмс, Александр Скарсгард, Камерон Монахэн, Тейлор Свифт, Эмма Трамбле, Александр Джиллингс Роли дублировали актеры: Владимир Антоник, Дарья Фролова, Василиса Эльдарова

О фильме:
Юный Джонас живет в идеальном, максимально цивилизованном обществе будущего, где больше нет войн, боли, страданий, радости, воспоминаний. Для каждого члена здесь определен идеальный порядок существования, и теперь никому не приходится выбирать шаг, мысль, цвет — все вокруг однозначно серое… По решению Совета общества Джонас назначается Хранителем памяти, которую он должен перенять у Учителя по имени Дающий. Юноше открывается правда о настоящем мире, но чтобы освободить свой мир, он должен бросить ему вызов…

Качество: DVD-5
Видео: PAL 16:9 (1024@720x576) VBR Auto Letterboxed ~ 6064.19 kbps avg
Аудио: Russian (Dolby AC3, 6 ch, 384 kbps)
Продолжительность: 01:33:18
Перевод: Профессиональный (многоголосный)
Title: Giver.2014.DVD5.NiP
Size: 4.22 Gb ( 4 429 844,00 KBytes ) - DVD-5
Enabled regions: 1, 2, 3, 4, 5, 6, 7, 8

VTS_01 :
Play Length: 01:33:18
Video: PAL 16:9 (720x576) VBR, Auto Letterboxed
Audio:
Russian (Dolby AC3, 6 ch)

VTS_02 :
Play Length: 00:06:36
Video: PAL 16:9 (720x576) VBR, Auto Letterboxed
Audio:
Not specified (Dolby AC3, 2 ch)

* Menus Information *

VIDEO_TS Menu
Video:
PAL 16:9 (720x576) VBR
Auto Pan&Scan
Audio:
Not specified (Dolby AC3, 2 ch)
Russian Language Unit :
Title Menu

VTS_01 Menu
Video:
PAL 16:9 (720x576) VBR
Auto Pan&Scan
Audio:
Not specified (Dolby AC3, 6 ch)
Russian Language Unit :
Root Menu
Chapter (PTT) Menu

VTS_02 Menu
Video:
NTSC 4:3 (720x480) VBR
Auto Pan&Scan, Auto Letterboxed
Russian Language Unit :
Root Menu
Общее
Полное имя : S:Giver.2014.DVD5.NiPVIDEO_TSVTS_01_2.VOB
Формат : MPEG-PS
Размер файла : 1024 Мбайт
Продолжительность : 22 м.
Режим общего битрейта : Переменный
Общий поток : 6474 Кбит/сек

Видео
Идентификатор : 224 (0xE0)
Формат : MPEG Video
Версия формата : Version 2
Профиль формата : Main@Main
Параметр BVOP формата : Да
Параметр матрицы формата : Выборочная
Параметр GOP формата : Variable
Продолжительность : 22 м.
Вид битрейта : Переменный
Битрейт : 5961 Кбит/сек
Максимальный битрейт : 9000 Кбит/сек
Ширина : 720 пикселей
Высота : 576 пикселей
Соотношение сторон : 16:9
Частота кадров : 25,000 кадров/сек
Стандарт вещания : PAL
Цветовое пространство : YUV
Субдискретизация насыщенности : 4:2:0
Битовая глубина : 8 бит
Тип развёртки : Прогрессивная
Порядок развёртки : Верхнее поле первое
Метод сжатия : С потерями
Бит/(Пиксели*Кадры) : 0.575
Временной код первого кадра : 01:23:29:17
Оригинал временного кода : Group of pictures header
Размер потока : 943 Мбайт (92%)

Аудио
Идентификатор : 189 (0xBD)-128 (0x80)
Формат : AC-3
Формат/Информация : Audio Coding 3
Расширение режима : CM (complete main)
Параметр Endianness формата : Big
Режим смешивания : DVD-Video
Продолжительность : 22 м.
Вид битрейта : Постоянный
Битрейт : 384 Кбит/сек
Каналы : 6 каналов
Расположение каналов : Front: L C R, Side: L R, LFE
Частота : 48,0 КГц
Битовая глубина : 16 бит
Метод сжатия : С потерями
Задержка видео : -640 мс.
Размер потока : 60,7 Мбайт (6%)













Вернуться к началу
 Профиль  
 
   Похожие торренты   Автор   Торрент   Размер 
В этой теме нет новых непрочитанных сообщений. Цимбелин / Cymbeline (Майкл Алмерейда) [драма, 2014] DVD5, Dub [Лицензия]

Dracon

42 | 7

4.14 ГБ

В этой теме нет новых непрочитанных сообщений. Женщина в черном 2: Ангел смерти / The Woman in Black 2: Angel of Death (Том Харпер) [ужасы, триллер, драма, 2014] DVD5, Dub [Лицензия]

Dracon

71 | 14

3.94 ГБ

В этой теме нет новых непрочитанных сообщений. Интерстеллар / Interstellar [фантастика, драма, приключения, 2014] UHD Blu-ray 2160p, Dub [4K] [Лицензия] [IMAX Edition]

salma3

0 | 0

84.1 ГБ

В этой теме нет новых непрочитанных сообщений. Интерстеллар / Interstellar [Фантастика, драма, приключения, 2014] BDRemux 2160p, Dub+Sub [IMAX Edition / Лицензия]

salma3

0 | 0

89.23 ГБ

В этой теме нет новых непрочитанных сообщений. Марсианин / The Martian [Фантастика, приключения, 2015] DVD5, Dub+Sub [Лицензия]

Dracon

278 | 42

4.37 ГБ

В этой теме нет новых непрочитанных сообщений. Полное превращение (Филипп Коршунов) [комедия, фантастика, 2015] DVD5 [Лицензия]

Dracon

788 | 188

3.94 ГБ

В этой теме нет новых непрочитанных сообщений. Чудо-женщина / Wonder Woman [Фантастика, фэнтези, боевик, 2017] DVD5, Dub [Лицензия]

salma3

17 | 5

4.37 ГБ


Начать новую тему Ответить на тему  [ 1 сообщение ] 




Для Мосгорсуда, Роскомнадзора и рекламодателей:: mosgorsud-torrent[собачка]yandex.ru
cron