Торрент файл
скачать торрент магнет ссылка Добавлен: 23 сен 2014, 11:20
Размер: 4.26 ГБ
Сидеров: 10
Личеров: 2
Автор

СообщениеДобавлено: 23 сен 2014, 11:20 

Не в сети
Супермодератор
Аватара пользователя
Дата регистрации:
15 фев 2012, 16:44
Возраст: 27
Спасибо: 5131 / 2089
Сообщения: 17376
Год выхода: 2008
Жанр: драма
Режиссер: Жан-Поль Лильенфельд

В ролях: Изабель Аджани, Дени Подалидес, Янн Коллетт, Натали Безансон, Марк Китти, Янн Эбонж, Карим Закрауи, Кевин Азиз, Халид Беркуз, Сара Дуали

О фильме:
Обычная школьная учительница находится на грани нервного срыва из-за постоянных угроз и издевательств своих учеников — детей из неблагополучных семей. Руководство бездействует, предпочитая игнорировать тревожные признаки назревающей трагедии. Во время очередного урока, в ходе потасовки с главарём школьной банды, она завладевает настоящим пистолетом. Раздаются выстрелы. Испуганные подростки оказываются в заложниках у собственной учительницы.

Сложившуюся ситуацию уже никто не в состоянии контролировать. Снаружи — готовая к захвату опергруппа, внутри — притихшие, но озлобленные дети, вынужденные учить Мольера под дулом револьвера в руках одинокой и растерянной женщины. Трагическая развязка близка. Но пока ещё есть время, они вместе пробуют разобраться, откуда у этих ребят накопилось столько злобы и ненависти к окружающему миру.



Страна: Франция, Бельгия
Студия: Arte France, Mascaret Films
Продолжительность: 87 мин. / 01:27
Перевод: профессиональный (многоголосый, закадровый)

Файл
Кодек: MPEG2
Качество: DVD5
Видео: PAL 16:9 (720x576@1024x576) VBR 5505 Kbps, 25.000 fps
Звук: Dolby AC3, 6 ch, 48.0 KHz, 448 Kbps русский, французский
Субтитры: русские

General
Complete name : D:ПОСЛЕДНИЙ УРОКVIDEO_TSVTS_03_1.VOB
Format : MPEG-PS
File size : 1 024 MiB
Duration : 21mn 55s
Overall bit rate mode : Variable
Overall bit rate : 6 531 Kbps
Writing library : (c) 1998-2007 Womble Multimedia, Inc. / MPEG Video Wizard (04/2007) / May 25 2007

Video
ID : 224 (0xE0)
Format : MPEG Video
Format version : Version 2
Format profile : Main@Main
Format settings, BVOP : No
Format settings, Matrix : Custom
Format settings, GOP : Variable
Duration : 21mn 55s
Bit rate mode : Variable
Bit rate : 5 505 Kbps
Maximum bit rate : 8 000 Kbps
Width : 720 pixels
Height : 576 pixels
Display aspect ratio : 16:9
Frame rate : 25.000 fps
Standard : PAL
Color space : YUV
Chroma subsampling : 4:2:0
Bit depth : 8 bits
Scan type : Interlaced
Scan order : Top Field First
Compression mode : Lossy
Bits/(Pixel*Frame) : 0.531
Time code of first frame : 00:00:00:00
Time code source : Group of pictures header
Stream size : 863 MiB (84%)
Writing library : (c) 1998-2007 Womble Multimedia, Inc. / MPEG Video Wizard (04/2007) / May 25 2007

Audio #1
ID : 189 (0xBD)-128 (0x80)
Format : AC-3
Format/Info : Audio Coding 3
Mode extension : CM (complete main)
Format settings, Endianness : Big
Muxing mode : DVD-Video
Duration : 21mn 54s
Bit rate mode : Constant
Bit rate : 448 Kbps
Channel(s) : 6 channels
Channel positions : Front: L C R, Side: L R, LFE
Sampling rate : 48.0 KHz
Bit depth : 16 bits
Compression mode : Lossy
Stream size : 70.2 MiB (7%)

Audio #2
ID : 189 (0xBD)-129 (0x81)
Format : AC-3
Format/Info : Audio Coding 3
Mode extension : CM (complete main)
Format settings, Endianness : Big
Muxing mode : DVD-Video
Duration : 21mn 55s
Bit rate mode : Constant
Bit rate : 448 Kbps
Channel(s) : 6 channels
Channel positions : Front: L C R, Side: L R, LFE
Sampling rate : 48.0 KHz
Bit depth : 16 bits
Compression mode : Lossy
Stream size : 70.2 MiB (7%)

Text #1
ID : 189 (0xBD)-33 (0x21)
Format : RLE
Format/Info : Run-length encoding
Muxing mode : DVD-Video
Duration : 21mn 47s
Delay relative to video : 2s 0ms

Text #2
ID : 189 (0xBD)-34 (0x22)
Format : RLE
Format/Info : Run-length encoding
Muxing mode : DVD-Video
Duration : 21mn 47s
Delay relative to video : 2s 0ms

Menu


_________________



реклама партнёра


Вернуться к началу
 Профиль Отправить личное сообщение  
 
   Похожие торренты   Автор   Торрент   Размер 
В этой теме нет новых непрочитанных сообщений. Философы: Урок выживания / The Philosophers [Фантастика, триллер, 2013] DVD5, Dub [Лицензия]

Dracon

23 | 3

4.27 ГБ

В этой теме нет новых непрочитанных сообщений. Последний толчок / Последний Рывок / The Last Push (Эрик Хэйден) [2012, Фантастика, драма, WEB-DL Rip 1080] Sub

Nickolas3435

155 | 22

1.34 ГБ

В этой теме нет новых непрочитанных сообщений. Урок выживания / Detention [Боевик, триллер, драма, 2003] BDRip, Dvo

salma3

155 | 19

1.45 ГБ

В этой теме нет новых непрочитанных сообщений. Урок выживания / Detention [Боевик, триллер, драма, 2003] BDRip 1080р, Dvo

salma3

52 | 5

9.52 ГБ

В этой теме нет новых непрочитанных сообщений. Последний час Земли / Earth's Final Hours [Фантастика, 2011] DVD5, Mvo [Лицензия]

salma3

41 | 14

4.01 ГБ

В этой теме нет новых непрочитанных сообщений. Последний танец / One Last Dance [боевик, мелодрама, комедия, криминал, 2006] DVD5, Mvo+Sub

salma3

34 | 4

4.02 ГБ

В этой теме нет новых непрочитанных сообщений. Последний охотник на ведьм / The Last Witch Hunter [фэнтези, боевик, приключения, 2015] DVD5, Dub+Sub

salma3

130 | 42

4.38 ГБ


Начать новую тему Ответить на тему  [ 1 сообщение ] 




Для Мосгорсуда, Роскомнадзора и рекламодателей:: mosgorsud-torrent[собачка]yandex.ru