Торрент файл
скачать торрент магнет ссылка Добавлен: 18 сен 2014, 12:49
Размер: 7.42 ГБ
Сидеров: 5
Личеров: 6
Автор

СообщениеДобавлено: 18 сен 2014, 12:49 

Не в сети
Супермодератор
Аватара пользователя
Дата регистрации:
15 фев 2012, 16:44
Возраст: 27
Спасибо: 5121 / 2089
Сообщения: 17282
Год выхода: 2002
Жанр: Мелодрама, комедия, приключения
Режиссёр: Реджинальд Хадлин
В ролях: Мэттью Перри, Элизабет Хёрли, Винсент Пасторе, Брюс Кэмпбелл, Эми Адамс, Терри Крюс, Джерри Стиллер, Маршалл Белл, Дерек Саузерс, Алайна Хаффман

О фильме:
Развод по-американски - это «развод» на деньги. Стоит только вытереть слезы и с помощью ушлого парня из адвокатской конторы «развести» бывшего муженька и его новую пассию на миллион долларов. Все, что для этого нужно, - небольшая афера. Гордон и Сара Мур не совсем обычная супружеская пара. Сара - типичная англичанка, Гордон - типичный техасец. Благодаря совместным усилиям их скотоводческое ранчо приносит огромные доходы. Прощаясь с мужем в аэропорту и садясь в самолет, направляющийся в Нью-Йорк, Сара и подумать не могла, какой сюрприз приготовил ей благоверный. В его жизни появилась другая женщина, и он хочет развестись…



Страна: Mandalay Pictures, FTM Productions
Студия: Германия, США
Продолжительность: 01:39:53
Перевод: Профессиональный многоголосый
Оригинальная аудио-дорожка: Английская
Меню: Английское, не анимированное (статичное), не озвученное

Файл
Кодек: MPEG2
Качество: DVD-9
Видео: MPEG2, NTSC, 720x480 (16:9), 6421 Кбит/с, VBR, 23,976 кадр/с
Аудио #1: Английский, Dоlby AC3, 48000 Гц, 448 Кбит/с, 6 каналов (5.1) - Оригинал
Аудио #2: Русский, Dоlby AC3, 48000 Гц, 448 Кбит/с, 6 каналов (5.1) - MVO
Аудио #3: Английский, Dоlby AC3, 48000 Гц, 192 Кбит/с, 2 канала (Стерео) - Оригинал, с комментариями режиссёра
Субтитры: Английские, французские, польские, чешские, турецкие

Доп. материалы: Сommentary by Director Reginald Hudlin, Serving Sara - A Look Inside The Process, Outtakes, Deleted Scenes, Extended/Alternate Scenes, Theatrical Trailer,

Title:
Size: 7.42 Gb ( 7 776 140,00 KBytes ) - DVD-9
Enabled regions: 1, 2, 3, 4, 5, 6

VTS_01 :
Play Length: 00:00:00
Video: NTSC 4:3 (720x480) VBR

VTS_02 :
Play Length: 01:39:52
Video: NTSC 16:9 (720x480) VBR, Auto Letterboxed
Audio:
English (Dolby AC3, 6 ch)
Russian (Dolby AC3, 6 ch)
English (Dolby AC3, 2 ch)
Subtitles:
English
Francais
Polish
Czech(Ceske)
Turkish

VTS_03 :
Play Length: 00:02:42
Video: NTSC 4:3 (720x480) VBR
Audio:
English (Dolby AC3, 2 ch)

VTS_04 :
Play Length: 00:00:58+00:01:24+00:01:38+00:04:00+00:01:28+00:00:43+00:02:11+00:00:50+00:02:06+00:01:22+00:04:18
Video: NTSC 4:3 (720x480) VBR
Audio:
English (Dolby AC3, 2 ch)
English (Dolby AC3, 2 ch)

VTS_05 :
Play Length: 00:02:32
Video: NTSC 4:3 (720x480) VBR
Audio:
English (Dolby AC3, 6 ch)
English (Dolby AC3, 2 ch)

VTS_06 :
Play Length: 00:19:08
Video: NTSC 4:3 (720x480) VBR
Audio:
English (Dolby AC3, 2 ch)

* Menus Information *

VIDEO_TS Menu
Video:
NTSC 16:9 (720x480) VBR
Auto Pan&Scan, Auto Letterboxed
English Language Unit :
Title Menu

VTS_01 Menu
Video:
NTSC 4:3 (720x480) VBR
English Language Unit :
Root Menu

VTS_02 Menu
Video:
NTSC 16:9 (720x480) VBR
Auto Pan&Scan
English Language Unit :
Root Menu
Subpicture Menu
Audio Menu
Angle menu
Chapter (PTT) Menu

VTS_03 Menu
Video:
NTSC 4:3 (720x480) VBR
English Language Unit :
Root Menu

VTS_04 Menu
Video:
NTSC 16:9 (720x480) VBR
Auto Pan&Scan, Auto Letterboxed
English Language Unit :
Root Menu

VTS_05 Menu
Video:
NTSC 16:9 (720x480) VBR
Auto Pan&Scan, Auto Letterboxed
English Language Unit :
Root Menu

VTS_06 Menu
Video:
NTSC 16:9 (720x480) VBR
Auto Pan&Scan, Auto Letterboxed
English Language Unit :
Root Menu
General
Complete name : VTS_02_1.VOB
Format : MPEG-PS
File size : 1 024 MiB
Duration : 18mn 40s
Overall bit rate mode : Variable
Overall bit rate : 7 662 Kbps

Video
ID : 224 (0xE0)
Format : MPEG Video
Format version : Version 2
Format profile : Main@Main
Format settings, BVOP : Yes
Format settings, Matrix : Custom
Format settings, GOP : Variable
Duration : 18mn 40s
Bit rate mode : Variable
Bit rate : 6 421 Kbps
Maximum bit rate : 9 800 Kbps
Width : 720 pixels
Height : 480 pixels
Display aspect ratio : 16:9
Frame rate : 23.976 fps
Standard : Component
Color space : YUV
Chroma subsampling : 4:2:0
Bit depth : 8 bits
Scan type : Progressive
Scan order : 2:3 Pulldown
Compression mode : Lossy
Bits/(Pixel*Frame) : 0.775
Time code of first frame : 00:00:00;00
Time code source : Group of pictures header
Stream size : 858 MiB (84%)
Color primaries : BT.601 NTSC
Transfer characteristics : BT.601
Matrix coefficients : BT.601

Audio #1
ID : 189 (0xBD)-128 (0x80)
Format : AC-3
Format/Info : Audio Coding 3
Mode extension : CM (complete main)
Format settings, Endianness : Big
Muxing mode : DVD-Video
Duration : 18mn 40s
Bit rate mode : Constant
Bit rate : 448 Kbps
Channel(s) : 6 channels
Channel positions : Front: L C R, Side: L R, LFE
Sampling rate : 48.0 KHz
Bit depth : 16 bits
Compression mode : Lossy
Stream size : 59.8 MiB (6%)

Audio #2
ID : 189 (0xBD)-129 (0x81)
Format : AC-3
Format/Info : Audio Coding 3
Mode extension : CM (complete main)
Format settings, Endianness : Big
Muxing mode : DVD-Video
Duration : 18mn 40s
Bit rate mode : Constant
Bit rate : 448 Kbps
Channel(s) : 6 channels
Channel positions : Front: L C R, Side: L R, LFE
Sampling rate : 48.0 KHz
Bit depth : 16 bits
Compression mode : Lossy
Stream size : 59.8 MiB (6%)

Audio #3
ID : 189 (0xBD)-130 (0x82)
Format : AC-3
Format/Info : Audio Coding 3
Format profile : Dolby Digital
Mode extension : CM (complete main)
Format settings, Endianness : Big
Muxing mode : DVD-Video
Duration : 18mn 40s
Bit rate mode : Constant
Bit rate : 192 Kbps
Channel(s) : 2 channels
Channel positions : Front: L R
Sampling rate : 48.0 KHz
Bit depth : 16 bits
Compression mode : Lossy
Stream size : 25.7 MiB (3%)

Text #1
ID : 189 (0xBD)-32 (0x20)
Format : RLE
Format/Info : Run-length encoding
Muxing mode : DVD-Video
Duration : 18mn 33s

Text #2
ID : 189 (0xBD)-33 (0x21)
Format : RLE
Format/Info : Run-length encoding
Muxing mode : DVD-Video
Duration : 18mn 33s

Text #3
ID : 189 (0xBD)-34 (0x22)
Format : RLE
Format/Info : Run-length encoding
Muxing mode : DVD-Video

Text #4
ID : 189 (0xBD)-35 (0x23)
Format : RLE
Format/Info : Run-length encoding
Muxing mode : DVD-Video

Text #5
ID : 189 (0xBD)-36 (0x24)
Format : RLE
Format/Info : Run-length encoding
Muxing mode : DVD-Video
Duration : 18mn 33s

Text #6
ID : 189 (0xBD)-37 (0x25)
Format : RLE
Format/Info : Run-length encoding
Muxing mode : DVD-Video
Duration : 18mn 33s

Text #7
ID : 189 (0xBD)-38 (0x26)
Format : RLE
Format/Info : Run-length encoding
Muxing mode : DVD-Video
Duration : 18mn 33s

Text #8
ID : 189 (0xBD)-39 (0x27)
Format : RLE
Format/Info : Run-length encoding
Muxing mode : DVD-Video
Duration : 18mn 33s

Text #9
ID : 189 (0xBD)-40 (0x28)
Format : RLE
Format/Info : Run-length encoding
Muxing mode : DVD-Video
Duration : 18mn 33s

Text #10
ID : 189 (0xBD)-41 (0x29)
Format : RLE
Format/Info : Run-length encoding
Muxing mode : DVD-Video
Duration : 18mn 33s

Text #11
ID : 224 (0xE0)-CC3
Format : EIA-608
Muxing mode, more info : Muxed in Video #1
Bit rate mode : Constant
Stream size : 0.00 Byte (0%)

Menu





_________________



реклама партнёра


Вернуться к началу
 Профиль Отправить личное сообщение  
 
   Похожие торренты   Автор   Торрент   Размер 
В этой теме нет новых непрочитанных сообщений. Мошенники / Повестка для Сары / Развод по-американски / Serving Sara [Мелодрама, комедия, приключения, 2002] DVD-5, Dub+Sub [Лицензия]

salma3

27 | 2

4.29 ГБ

В этой теме нет новых непрочитанных сообщений. Мошенники / Serving Sara [комедия, приключения, мелодрама, 2002] DVDRip, Dub

salma3

36 | 4

1.37 ГБ

В этой теме нет новых непрочитанных сообщений. Развод / Le Divorce [драма, мелодрама, комедия, 2003] HDTVRip, Dub

salma3

95 | 7

1.46 ГБ

В этой теме нет новых непрочитанных сообщений. Это развод! / Serious Moonlight [комедия, мелодрама, криминал, 2009] BDRip, Mvo [лицензия]

salma3

4 | 4

1.46 ГБ

В этой теме нет новых непрочитанных сообщений. Развод по собственному желанию (Илья Северов) [комедия, мелодрама, 2015] WEB-DLRip

Dracon

1344 | 43

1.37 ГБ

В этой теме нет новых непрочитанных сообщений. Развод по собственному желанию (Илья Северов) [комедия, мелодрама, 2015] WEB-DL 1080p

Dracon

787 | 27

3.28 ГБ

В этой теме нет новых непрочитанных сообщений. Развод / Le Divorce [драма, мелодрама, комедия, 2003] HDTV 1080i, Dub [Невафильм]

salma3

44 | 10

4.94 ГБ


Начать новую тему Ответить на тему  [ 1 сообщение ] 




Для Мосгорсуда, Роскомнадзора и рекламодателей:: mosgorsud-torrent[собачка]yandex.ru