Торрент файл
скачать торрент магнет ссылка Добавлен: 18 сен 2014, 12:48
Размер: 4.29 ГБ
Сидеров: 27
Личеров: 2
Автор

СообщениеДобавлено: 18 сен 2014, 12:48 

Не в сети
Супермодератор
Аватара пользователя
Дата регистрации:
15 фев 2012, 16:44
Возраст: 27
Спасибо: 5148 / 2090
Сообщения: 17558
Год выхода: 2002
Жанр: Мелодрама, комедия, приключения
Режиссёр: Реджинальд Хадлин
В ролях: Мэттью Перри, Элизабет Хёрли, Винсент Пасторе, Брюс Кэмпбелл, Эми Адамс, Терри Крюс, Джерри Стиллер, Маршалл Белл, Дерек Саузерс, Алайна Хаффман

О фильме:
Развод по-американски - это «развод» на деньги. Стоит только вытереть слезы и с помощью ушлого парня из адвокатской конторы «развести» бывшего муженька и его новую пассию на миллион долларов. Все, что для этого нужно, - небольшая афера. Гордон и Сара Мур не совсем обычная супружеская пара. Сара - типичная англичанка, Гордон - типичный техасец. Благодаря совместным усилиям их скотоводческое ранчо приносит огромные доходы. Прощаясь с мужем в аэропорту и садясь в самолет, направляющийся в Нью-Йорк, Сара и подумать не могла, какой сюрприз приготовил ей благоверный. В его жизни появилась другая женщина, и он хочет развестись…



Страна: Mandalay Pictures, FTM Productions
Студия: Германия, США
Продолжительность: 01:35:28
Перевод: Дублированный [Невафильм]
Оригинальная аудио-дорожка: Английская
Меню: Русское, анимированное, озвученное

Файл
Кодек: MPEG2
Качество: DVD-5
Видео: MPEG2, PAL, 720x576 (16:9), 4405 Кбит/с, VBR, 25 кадр/с
Аудио #1: Русский, Dоlby AC3, 48000 Гц, 448 Кбит/с, 6 каналов (5.1) - DUB, R5 [Невафильм]
Аудио #2: Английский, Dоlby AC3, 48000 Гц, 448 Кбит/с, 6 каналов (5.1) - Оригинал
Субтитры: Русские

Доп. материалы: Каталог, Смотрите на DVD, Создатели и Исполнители

Title: Мошенники [DVD-5] R5
Size: 4.29 Gb ( 4 503 232,00 KBytes ) - DVD-5
Enabled regions: 1, 2, 3, 4, 5, 6, 7, 8

VTS_01 :
Play Length: 00:00:10
Video: PAL 4:3 (720x576) VBR

VTS_02 :
Play Length: 00:00:11
Video: PAL 4:3 (720x576) VBR
Audio:
Not specified (Dolby AC3, 6 ch)
Not specified (Dolby AC3, 6 ch)
Subtitles:
English

VTS_03 :
Play Length: 00:00:14
Video: PAL 4:3 (720x576) VBR
Audio:
English (Dolby AC3, 2 ch)
English (Dolby AC3, 2 ch)
Subtitles:
English

VTS_04 :
Play Length: 01:35:27
Video: PAL 16:9 (720x576) VBR, Auto Letterboxed
Audio:
Russian, AC3, 3/2 (L,C,R,SL,SR)+LFE ch, 448 kbps, Delay 0 mSec
English, AC3, 3/2 (L,C,R,SL,SR)+LFE ch, 448 kbps, Delay 0 mSec
Subtitles:
Russian

VTS_05 :
Play Length: 00:01:47
Video: PAL 4:3 (720x576) VBR
Audio:
Russian (Dolby AC3, 2 ch)

VTS_06 :
Play Length: 00:01:35
Video: PAL 4:3 (720x576) VBR
Audio:
Not specified (Dolby AC3, 6 ch)

* Menus Information *

VIDEO_TS Menu
Video:
PAL 16:9 (720x576) VBR
Auto Pan&Scan, Auto Letterboxed
English Language Unit :
Title Menu

VTS_01 Menu
Video:
PAL 16:9 (720x576) VBR
Auto Letterboxed
Audio:
Not specified (Dolby AC3, 2 ch)
English Language Unit :
Root Menu

VTS_02 Menu
Video:
PAL 4:3 (720x576) VBR
English Language Unit :
Root Menu

VTS_03 Menu
Video:
PAL 4:3 (720x576) VBR
English Language Unit :
Root Menu

VTS_04 Menu
Video:
PAL 4:3 (720x576) VBR
English Language Unit :
Root Menu

VTS_05 Menu
Video:
PAL 4:3 (720x576) VBR
English Language Unit :
Root Menu

VTS_06 Menu
Video:
PAL 4:3 (720x576) VBR
English Language Unit :
Root Menu
General
Complete name : VTS_04_1.VOB
Format : MPEG-PS
File size : 1 024 MiB
Duration : 26mn 28s
Overall bit rate mode : Variable
Overall bit rate : 5 409 Kbps

Video
ID : 224 (0xE0)
Format : MPEG Video
Format version : Version 2
Format profile : Main@Main
Format settings, BVOP : Yes
Format settings, Matrix : Custom
Format settings, GOP : M=3, N=15
Format settings, picture structure : Frame
Duration : 26mn 28s
Bit rate mode : Variable
Bit rate : 4 405 Kbps
Maximum bit rate : 9 000 Kbps
Width : 720 pixels
Height : 576 pixels
Display aspect ratio : 16:9
Frame rate : 25.000 fps
Standard : PAL
Color space : YUV
Chroma subsampling : 4:2:0
Bit depth : 8 bits
Scan type : Interlaced
Scan order : Top Field First
Compression mode : Lossy
Bits/(Pixel*Frame) : 0.425
Time code of first frame : 01:00:00:16
Time code source : Group of pictures header
Stream size : 834 MiB (81%)

Audio #1
ID : 189 (0xBD)-128 (0x80)
Format : AC-3
Format/Info : Audio Coding 3
Mode extension : CM (complete main)
Format settings, Endianness : Big
Muxing mode : DVD-Video
Duration : 26mn 27s
Bit rate mode : Constant
Bit rate : 448 Kbps
Channel(s) : 6 channels
Channel positions : Front: L C R, Side: L R, LFE
Sampling rate : 48.0 KHz
Bit depth : 16 bits
Compression mode : Lossy
Stream size : 84.8 MiB (8%)

Audio #2
ID : 189 (0xBD)-129 (0x81)
Format : AC-3
Format/Info : Audio Coding 3
Mode extension : CM (complete main)
Format settings, Endianness : Big
Muxing mode : DVD-Video
Duration : 26mn 27s
Bit rate mode : Constant
Bit rate : 448 Kbps
Channel(s) : 6 channels
Channel positions : Front: L C R, Side: L R, LFE
Sampling rate : 48.0 KHz
Bit depth : 16 bits
Compression mode : Lossy
Stream size : 84.8 MiB (8%)

Text
ID : 189 (0xBD)-32 (0x20)
Format : RLE
Format/Info : Run-length encoding
Muxing mode : DVD-Video

Menu



_________________



реклама партнёра


Вернуться к началу
 Профиль Отправить личное сообщение  
 
   Похожие торренты   Автор   Торрент   Размер 
В этой теме нет новых непрочитанных сообщений. Мошенники / Повестка для Сары / Развод по-американски / Serving Sara [Мелодрама, комедия, приключения, 2002] DVD-9, Dub+Sub

salma3

5 | 6

7.42 ГБ

В этой теме нет новых непрочитанных сообщений. Мошенники / Serving Sara [комедия, приключения, мелодрама, 2002] DVDRip, Dub

salma3

36 | 4

1.37 ГБ

В этой теме нет новых непрочитанных сообщений. Это развод! / Serious Moonlight [комедия, мелодрама, криминал, 2009] BDRip, Mvo [лицензия]

salma3

4 | 4

1.46 ГБ

В этой теме нет новых непрочитанных сообщений. Афера по-американски / American Hustle [драма, комедия, 2013] HDRip, Dub [лицензия]

Dracon

48 | 49

1.46 ГБ

В этой теме нет новых непрочитанных сообщений. Афера по-американски / American Hustle [драма, комедия, 2013] Blu-Ray Remux 1080p, Dub+Sub [Лицензия]

Dracon

20 | 4

27.57 ГБ

В этой теме нет новых непрочитанных сообщений. Афера по-американски / American Hustle [драма, комедия, 2013] BDRip 720p, Dub+Sub [Лицензия]

Dracon

194 | 5

8.16 ГБ

В этой теме нет новых непрочитанных сообщений. Развод / Le Divorce [драма, мелодрама, комедия, 2003] HDTVRip, Dub

salma3

95 | 7

1.46 ГБ


Начать новую тему Ответить на тему  [ 1 сообщение ] 




Для Мосгорсуда, Роскомнадзора и рекламодателей:: mosgorsud-torrent[собачка]yandex.ru