Торрент файл
скачать торрент магнет ссылка Добавлен: 16 сен 2014, 21:38
Размер: 4.14 ГБ
Сидеров: 14
Личеров: 5
Автор

СообщениеДобавлено: 16 сен 2014, 21:38 

Не в сети
Супермодератор
Аватара пользователя
Дата регистрации:
15 фев 2012, 16:44
Возраст: 27
Спасибо: 5143 / 2090
Сообщения: 17499
Год выхода: 2000
Жанр: Фантастика, триллер, боевик
Режиссер: Аллан Мойле

В ролях: Стивен Болдуин, Паскаль Буссирес, Ким Коутс, Кайл МакЛахлан, Том Рэк, Арнольд Пиннок, Чарльз Пауэлл, Джуда Кац, Шон Дивайн, Джанет Киддер

О фильме:
В недалёком будущем, когда клонирование уже стало обычным делом, достижения биотехнологии позволили перемещаться в пространстве, обмениваясь телами... После убийства управляющего одной могущественной корпорации Стивен Тоффлер вынужден отправиться в Сан-Франциско, покинув своё тело. А позже оно исчезает, сделав невозможным возвращение обратно! Теперь у Тоффлера есть только 2 дня, чтобы найти себя самого или он умрёт! Слишком мало времени, учитывая количество желающих ускорить этот процесс...



Страна: Канада
Студия: Trimark Pictures
Продолжительность: 01:45:03
Перевод: Профессиональный многоголосый

Файл
Кодек: MPEG2
Качество: DVD-5
Видео: MPEG2, PAL, 720x576 (4:3), ~ 3877 Кбит/с, VBR, 25 кадр/с
Аудио #1: Английский, Dolby AC3, 48000 Гц, 384 Кбит/с, 6 каналов (5.1) - Оригинал
Аудио #2: Русский, Dolby AC3, 48000 Гц, 384 Кбит/с, 6 каналов (5.1) - MVO
Субтитры: Эстонские, русские, латышские



Title: Xchange.2000.DVD5
Size: 4.14 Gb ( 4 342 914,00 KBytes ) - DVD-5
Enabled regions: 1, 2, 3, 4, 5, 6, 7, 8

VTS_01 :
Play Length: 00:00:01
Video: PAL 4:3 (720x576) VBR
Audio:
English (Dolby AC3, 6 ch)
Russian (Dolby AC3, 6 ch)
Subtitles:
Estonian
Russian
Latvian

VTS_02 :
Play Length: 01:45:03
Video: PAL 4:3 (720x576) VBR
Audio:
English (Dolby AC3, 6 ch)
Russian (Dolby AC3, 6 ch)
Subtitles:
Estonian
Russian
Latvian

VTS_03 :
Play Length: 00:00:30
Video: PAL 16:9 (720x576) VBR, Auto Pan&Scan, Auto Letterboxed
Audio:
English (Dolby AC3, 6 ch)

VTS_04 :
Play Length: 00:00:06
Video: PAL 4:3 (720x576) VBR, Auto Pan&Scan, Auto Letterboxed

* Menus Information *

VIDEO_TS Menu
Video:
PAL 4:3 (720x576) VBR
English Language Unit :
Title Menu

VTS_01 Menu
Video:
PAL 4:3 (720x576) VBR
Audio:
Not specified (Dolby AC3, 6 ch)
English Language Unit :
Root Menu

VTS_02 Menu
Video:
PAL 4:3 (720x576) VBR
English Language Unit :
Root Menu
Subpicture Menu
Audio Menu
Angle menu
Chapter (PTT) Menu

VTS_03 Menu
Video:
NTSC 4:3 (720x480) VBR
Auto Pan&Scan, Auto Letterboxed
Language Unit :
Subpicture Menu
Angle menu
Language Unit :
Subpicture Menu
Angle menu
Language Unit :
Subpicture Menu
Angle menu
Language Unit :
Subpicture Menu
Angle menu
Language Unit :
Subpicture Menu
Angle menu

VTS_04 Menu
Video:
NTSC 4:3 (720x480) VBR
Auto Pan&Scan, Auto Letterboxed
Language Unit :
Subpicture Menu
Angle menu
Language Unit :
Language Unit :
Root Menu
Chapter (PTT) Menu
Language Unit :
Language Unit :
Root Menu
Chapter (PTT) Menu
General
Complete name : VTS_02_1.VOB
Format : MPEG-PS
File size : 1 024 MiB
Duration : 30mn 12s
Overall bit rate mode : Variable
Overall bit rate : 4 739 Kbps

Video
ID : 224 (0xE0)
Format : MPEG Video
Format version : Version 2
Format profile : Main@Main
Format settings, BVOP : Yes
Format settings, Matrix : Default
Format settings, GOP : Variable
Format settings, picture structure : Frame
Duration : 30mn 12s
Bit rate mode : Variable
Bit rate : 3 877 Kbps
Maximum bit rate : 8 300 Kbps
Width : 720 pixels
Height : 576 pixels
Display aspect ratio : 4:3
Frame rate : 25.000 fps
Standard : PAL
Color space : YUV
Chroma subsampling : 4:2:0
Bit depth : 8 bits
Scan type : Interlaced
Scan order : Top Field First
Compression mode : Lossy
Bits/(Pixel*Frame) : 0.374
Time code of first frame : 01:02:28:00
Time code source : Group of pictures header
Stream size : 838 MiB (82%)
Color primaries : BT.601 PAL
Transfer characteristics : BT.470 System B, BT.470 System G
Matrix coefficients : BT.601

Audio #1
ID : 189 (0xBD)-128 (0x80)
Format : AC-3
Format/Info : Audio Coding 3
Mode extension : CM (complete main)
Format settings, Endianness : Big
Muxing mode : DVD-Video
Duration : 30mn 12s
Bit rate mode : Constant
Bit rate : 384 Kbps
Channel(s) : 6 channels
Channel positions : Front: L C R, Side: L R, LFE
Sampling rate : 48.0 KHz
Bit depth : 16 bits
Compression mode : Lossy
Stream size : 82.9 MiB (8%)

Audio #2
ID : 189 (0xBD)-129 (0x81)
Format : AC-3
Format/Info : Audio Coding 3
Mode extension : CM (complete main)
Format settings, Endianness : Big
Muxing mode : DVD-Video
Duration : 30mn 12s
Bit rate mode : Constant
Bit rate : 384 Kbps
Channel(s) : 6 channels
Channel positions : Front: L C R, Side: L R, LFE
Sampling rate : 48.0 KHz
Bit depth : 16 bits
Compression mode : Lossy
Stream size : 82.9 MiB (8%)

Text #1
ID : 189 (0xBD)-32 (0x20)
Format : RLE
Format/Info : Run-length encoding
Muxing mode : DVD-Video

Text #2
ID : 189 (0xBD)-33 (0x21)
Format : RLE
Format/Info : Run-length encoding
Muxing mode : DVD-Video

Text #3
ID : 189 (0xBD)-34 (0x22)
Format : RLE
Format/Info : Run-length encoding
Muxing mode : DVD-Video

Menu


_________________



реклама партнёра


Вернуться к началу
 Профиль Отправить личное сообщение  
 
   Похожие торренты   Автор   Торрент   Размер 
В этой теме нет новых непрочитанных сообщений. Крепость 1-2 / Fortress; Fortress II: Re-entry [Фантастика, боевик, мелодрама, 1993-2000] 2 x DVD5, Mvo+Sub [Лицензия]

salma3

9 | 5

8.02 ГБ

В этой теме нет новых непрочитанных сообщений. Гостья / The Host [фантастика, боевик, триллер, мелодрама, приключения, 2013] DVD5, Dub+Sub [Лицензия]

Dracon

28 | 4

4.37 ГБ

В этой теме нет новых непрочитанных сообщений. Мстители: Эра Альтрона / Avengers: Age of Ultron (Джосс Уидон) [фантастика, боевик, триллер, приключения, 2015] DVD5, Dub+Sub [Лицензия]

Dracon

323 | 49

4.37 ГБ

В этой теме нет новых непрочитанных сообщений. Бегущий в лабиринте: Испытание огнём / Maze Runner: The Scorch Trials (Уэс Болл) [фантастика, боевик, триллер, 2015] DVD5, Dub+Sub [Лицензия]

Dracon

346 | 71

4.36 ГБ

В этой теме нет новых непрочитанных сообщений. Сверхновая / Supernova [Ужасы, триллер, фантастика, 2000] DVD5, Mvo

salma3

8 | 3

4.36 ГБ

В этой теме нет новых непрочитанных сообщений. Сверхновая / Supernova [Ужасы, фантастика, триллер, 2000] BDRip, Mvo [Лицензия]

salma3

95 | 8

1.45 ГБ

В этой теме нет новых непрочитанных сообщений. Дракула 2000 / Dracula 2000 [ужасы, фэнтези, боевик, триллер, 2000] BDRip 1080p, Dub+Sub

salma3

54 | 14

9.81 ГБ


Начать новую тему Ответить на тему  [ 1 сообщение ] 




Для Мосгорсуда, Роскомнадзора и рекламодателей:: mosgorsud-torrent[собачка]yandex.ru