Торрент файл
скачать торрент магнет ссылка Добавлен: 04 сен 2014, 12:19
Размер: 5.92 ГБ
Сидеров: 3
Личеров: 3
Автор

СообщениеДобавлено: 04 сен 2014, 12:19 

Не в сети
Супермодератор
Аватара пользователя
Дата регистрации:
15 фев 2012, 16:44
Возраст: 27
Спасибо: 5135 / 2089
Сообщения: 17409
Год выхода: 2002
Жанр: Военный, история
Режиссер: Джон Ву
В ролях: Николас Кейдж, Адам Бич, Петер Стормаре, Ноа Эммерик, Марк Руффало, Брайан Ван Холт, Мартин Хендерсон, Роджер Уилли, Фрэнсис О’Коннор, Кристиан Слэйтер, Джейсон Айзекс, Билли Мортс, Кэмерон Тор, Кевин Куни, Холмс Осборн

О фильме: Вторая мировая война. Америка ведет ожесточенные бои с японцами в Тихом океане. В течении этой войны японцы искусно расшифровывают секретные американские радиограммы. Это обстоятельство заставило американское правительство завербовать несколько сотен индейцев Навахо, чтобы использовать их родной язык в качестве кода для секретных сообщений. Морскому пехотинцу Джо Эндерсу дается задание: охранять Бена Яхзи, который знает секретный код, охранять любой ценой, и даже убить своего подопечного, если он попадет в плен к врагам. Джо предстоит решить, чьей жизнью пожертвовать — своей или Бена — чтобы защитить код…



Страна: США
Студия: Lion Rock Productions, Metro-Goldwyn-Mayer
Продолжительность: 02:14:20
Перевод: Дублированный, профессиональный многоголосый, авторский

Файл
Кодек: MPEG-2
Качество: DVD-9
Видео: PAL 16:9 (720x576) VBR, 3193 Кбит/сек
Звук: Русский, английский (Dolby AC3, 6 ch 384 Кбит/сек), русский (Dolby AC3, 2 ch 192 Кбит/сек)

1. Дублированный
2. Профессиональный многоголосый (Карусель)
3. Профессиональный многоголосый (CP Digital)
4. Профессиональный многоголосый (Двадцатый Век Фокс СНГ)
5. Авторский (Юрий Живов)
6. Авторский (Андрей Дольский)
7. Английский
Title: Локальный диск
Size: 5.92 Gb ( 6 204 716 KBytes ) - DVD-9
Enabled regions: 1, 2, 3, 4, 5, 6, 7, 8

VTS_01 :
Play Length: 02:14:20
Video: PAL 16:9 (720x576) VBR, Auto Pan&Scan
Audio:
Russian (Dolby AC3, 6 ch)
Russian (Dolby AC3, 6 ch)
Russian (Dolby AC3, 6 ch)
Russian (Dolby AC3, 6 ch)
Russian (Dolby AC3, 6 ch)
Russian (Dolby AC3, 2 ch)
English (Dolby AC3, 6 ch)

Menu Video:
PAL 4:3 (704x576) VBR
Menu English Language Unit :
Root Menu
Общее
Полное имя : E:1АААГОВОРЯЩИЕ С ВЕТРОМVIDEO_TSVTS_01_1.VOB
Формат : MPEG-PS
Размер файла : 1000 Мбайт
Продолжительность : 24 м.
Режим общего битрейта : Переменный
Общий поток : 5805 Кбит/сек

Видео
Идентификатор : 224 (0xE0)
Формат : MPEG Video
Версия формата : Version 2
Профиль формата : Main@Main
Параметр BVOP формата : Да
Параметр матрицы формата : По умолчанию
Параметр GOP формата : M=3, N=12
Продолжительность : 24 м.
Вид битрейта : Переменный
Битрейт : 3193 Кбит/сек
Максимальный битрейт : 7872 Кбит/сек
Ширина : 720 пикселей
Высота : 576 пикселей
Соотношение сторон : 16:9
Частота кадров : 24,000 кадра/сек
Стандарт вещания : PAL
Цветовое пространство : YUV
Субдискретизация насыщенности : 4:2:0
Битовая глубина : 8 бит
Тип развёртки : Прогрессивная
Порядок развёртки : 2:2:2:2:2:2:2:2:2:2:2:3 Pulldown
Метод сжатия : С потерями
Бит/(Пиксели*Кадры) : 0.321
TimeCode_FirstFrame : 00:00:00:00
TimeCode_Source : Group of pictures header
Размер потока : 550 Мбайт (55%)

Аудио #1
Идентификатор : 189 (0xBD)-128 (0x80)
Формат : AC-3
Формат/Информация : Audio Coding 3
Расширение режима : CM (complete main)
Параметр Endianness формата : Big
Режим смешивания : DVD-Video
Продолжительность : 24 м.
Вид битрейта : Постоянный
Битрейт : 384 Кбит/сек
Каналы : 6 каналов
Расположение каналов : Front: L C R, Side: L R, LFE
Частота : 48,0 КГц
Битовая глубина : 16 бит
Метод сжатия : С потерями
Размер потока : 66,2 Мбайт (7%)

Аудио #2
Идентификатор : 189 (0xBD)-129 (0x81)
Формат : AC-3
Формат/Информация : Audio Coding 3
Расширение режима : CM (complete main)
Параметр Endianness формата : Big
Режим смешивания : DVD-Video
Продолжительность : 24 м.
Вид битрейта : Постоянный
Битрейт : 384 Кбит/сек
Каналы : 6 каналов
Расположение каналов : Front: L C R, Side: L R, LFE
Частота : 48,0 КГц
Битовая глубина : 16 бит
Метод сжатия : С потерями
Размер потока : 66,2 Мбайт (7%)

Аудио #3
Идентификатор : 189 (0xBD)-130 (0x82)
Формат : AC-3
Формат/Информация : Audio Coding 3
Расширение режима : CM (complete main)
Параметр Endianness формата : Big
Режим смешивания : DVD-Video
Продолжительность : 24 м.
Вид битрейта : Постоянный
Битрейт : 384 Кбит/сек
Каналы : 6 каналов
Расположение каналов : Front: L C R, Side: L R, LFE
Частота : 48,0 КГц
Битовая глубина : 16 бит
Метод сжатия : С потерями
Размер потока : 66,2 Мбайт (7%)

Аудио #4
Идентификатор : 189 (0xBD)-131 (0x83)
Формат : AC-3
Формат/Информация : Audio Coding 3
Расширение режима : CM (complete main)
Параметр Endianness формата : Big
Режим смешивания : DVD-Video
Продолжительность : 24 м.
Вид битрейта : Постоянный
Битрейт : 384 Кбит/сек
Каналы : 6 каналов
Расположение каналов : Front: L C R, Side: L R, LFE
Частота : 48,0 КГц
Битовая глубина : 16 бит
Метод сжатия : С потерями
Размер потока : 66,2 Мбайт (7%)

Аудио #5
Идентификатор : 189 (0xBD)-132 (0x84)
Формат : AC-3
Формат/Информация : Audio Coding 3
Расширение режима : CM (complete main)
Параметр Endianness формата : Big
Режим смешивания : DVD-Video
Продолжительность : 24 м.
Вид битрейта : Постоянный
Битрейт : 384 Кбит/сек
Каналы : 6 каналов
Расположение каналов : Front: L C R, Side: L R, LFE
Частота : 48,0 КГц
Битовая глубина : 16 бит
Метод сжатия : С потерями
Размер потока : 66,2 Мбайт (7%)

Аудио #6
Идентификатор : 189 (0xBD)-133 (0x85)
Формат : AC-3
Формат/Информация : Audio Coding 3
Расширение режима : CM (complete main)
Параметр Endianness формата : Big
Режим смешивания : DVD-Video
Продолжительность : 24 м.
Вид битрейта : Постоянный
Битрейт : 192 Кбит/сек
Каналы : 2 канала
Расположение каналов : Front: L R
Частота : 48,0 КГц
Битовая глубина : 16 бит
Метод сжатия : С потерями
Размер потока : 33,1 Мбайт (3%)

Аудио #7
Идентификатор : 189 (0xBD)-134 (0x86)
Формат : AC-3
Формат/Информация : Audio Coding 3
Расширение режима : CM (complete main)
Параметр Endianness формата : Big
Режим смешивания : DVD-Video
Продолжительность : 24 м.
Вид битрейта : Постоянный
Битрейт : 384 Кбит/сек
Каналы : 6 каналов
Расположение каналов : Front: L C R, Side: L R, LFE
Частота : 48,0 КГц
Битовая глубина : 16 бит
Метод сжатия : С потерями
Размер потока : 66,2 Мбайт (7%)

Меню


_________________



реклама партнёра


Вернуться к началу
 Профиль Отправить личное сообщение  
 
   Похожие торренты   Автор   Торрент   Размер 
В этой теме нет новых непрочитанных сообщений. К-19 / K-19: The Widowmaker [триллер, драма, военный, история, 2002], Blu-ray 1080p, Dub+Avo+Sub

salma3

3 | 3

45.6 ГБ

В этой теме нет новых непрочитанных сообщений. Пропуск / Laissez-passer [драма, военный, биография, история, 2002] DVDRip, Dvo

salma3

24 | 1

2.05 ГБ

В этой теме нет новых непрочитанных сообщений. Юлий Цезарь / Julius Caesar [драма, военный, биография, история, 2002] BDRip 720p, Mvo+Sub

salma3

161 | 25

4.36 ГБ

В этой теме нет новых непрочитанных сообщений. Рождённые ветром / Sweet Land [Драма, мелодрама, 2005] DVDRip, Mvo

salma3

33 | 3

1.46 ГБ

В этой теме нет новых непрочитанных сообщений. Угнаться за ветром / Jag etter vind / Chasing the Wind [драма, 2013] BDRip 1080p, avo+sub

Dracon

10 | 3

7.05 ГБ

В этой теме нет новых непрочитанных сообщений. Император / Emperor [драма, военный, история, 2012] HDRip, Mvo

Dracon

737 | 12

1.36 ГБ

В этой теме нет новых непрочитанных сообщений. Бомбёжка / Het Bombardement [драма, военный, история, 2012] HDRip, Mvo [НТВ+]

salma3

42 | 3

1.46 ГБ


Начать новую тему Ответить на тему  [ 1 сообщение ] 




Для Мосгорсуда, Роскомнадзора и рекламодателей:: mosgorsud-torrent[собачка]yandex.ru