Торрент файл
скачать торрент магнет ссылка Добавлен: 28 авг 2014, 14:33
Размер: 5.56 ГБ
Сидеров: 8
Личеров: 3
Автор

СообщениеДобавлено: 28 авг 2014, 14:33 

Не в сети
Супермодератор
Аватара пользователя
Дата регистрации:
15 фев 2012, 16:44
Возраст: 27
Спасибо: 5131 / 2089
Сообщения: 17372
Год выхода: 1997
Жанр: Боевик
Режиссер: Ридли Скотт
В ролях: Деми Мур, Вигго Мортенсен, Джейсон Бидж, Скотт Уилсон, Энн Бэнкрофт, Люсинда Дженни, Моррис Честнат, Джош Хопкинс, Джеймс Кэвизел, Энджел Дэвид, Бойд Кестнер, Кевин Гейдж, Дэвид Вадим, Грегг Белло, Стивен Рэмзи, Дэниел фон Барген

О фильме: Лейтенант военной разведки Джордан О’Нил получает направление для участия в элитной программе сил специального назначения. Она не знает, что выбор на нее пал не случайно. Сенатор от штата Техас Лилиан ДеХэвен решила использовать Джордан в своей политической игре. А Джордан тем временем изо всех пытается доказать сильным мужчинам, что женщина – не всегда слабый пол.



Страна: США
Студия: Largo Entertainment
Продолжительность: 02:05:14
Перевод: Профессиональный многоголосый, авторский

Файл
Кодек: MPEG-2
Качество: DVD-9
Видео: PAL 16:9 (720x576) VBR, 5252 Кбит/сек
Звук: Русский, английский (Dolby AC3, 2 ch, 192 kbps)

1. Профессиональный многоголосый
2. Авторский (Гаврилов)
3. Авторский (Живов)
4. Английский
Title: DATA
Size: 5.56 Gb ( 5 834 272 KBytes ) - DVD-9
Enabled regions: 1, 2, 3, 4, 5, 6, 7, 8

VTS_01 :
Play Length: 02:05:14
Video: PAL 16:9 (720x576) VBR, Auto Pan&Scan
Audio:
Russian (Dolby AC3, 2 ch)
Russian (Dolby AC3, 2 ch)
Russian (Dolby AC3, 2 ch)
English (Dolby AC3, 2 ch)

Menu Video:
PAL 4:3 (704x576) VBR
Menu English Language Unit :
Root Menu
Общее
Полное имя : D:залитьСОЛДАТ ДЖЕЙНVIDEO_TSVTS_01_1.VOB
Формат : MPEG-PS
Размер файла : 1000 Мбайт
Продолжительность : 22 м.
Режим общего битрейта : Переменный
Общий поток : 6142 Кбит/сек

Видео
Идентификатор : 224 (0xE0)
Формат : MPEG Video
Версия формата : Version 2
Профиль формата : Main@Main
Параметр BVOP формата : Да
Параметр матрицы формата : По умолчанию
Параметр GOP формата : M=3, N=12
Продолжительность : 22 м.
Вид битрейта : Переменный
Битрейт : 5252 Кбит/сек
Максимальный битрейт : 8280 Кбит/сек
Ширина : 720 пикселей
Высота : 576 пикселей
Соотношение сторон : 16:9
Частота кадров : 24,000 кадра/сек
Стандарт вещания : PAL
Цветовое пространство : YUV
Субдискретизация насыщенности : 4:2:0
Битовая глубина : 8 бит
Тип развёртки : Прогрессивная
Порядок развёртки : 2:2:2:2:2:2:2:2:2:2:2:3 Pulldown
Метод сжатия : С потерями
Бит/(Пиксели*Кадры) : 0.528
TimeCode_FirstFrame : 00:00:00:00
TimeCode_Source : Group of pictures header
Размер потока : 855 Мбайт (86%)

Аудио #1
Идентификатор : 189 (0xBD)-128 (0x80)
Формат : AC-3
Формат/Информация : Audio Coding 3
Расширение режима : CM (complete main)
Параметр Endianness формата : Big
Режим смешивания : DVD-Video
Продолжительность : 22 м.
Вид битрейта : Постоянный
Битрейт : 192 Кбит/сек
Каналы : 2 канала
Расположение каналов : Front: L R
Частота : 48,0 КГц
Битовая глубина : 16 бит
Метод сжатия : С потерями
Размер потока : 31,3 Мбайт (3%)

Аудио #2
Идентификатор : 189 (0xBD)-129 (0x81)
Формат : AC-3
Формат/Информация : Audio Coding 3
Расширение режима : CM (complete main)
Параметр Endianness формата : Big
Режим смешивания : DVD-Video
Продолжительность : 22 м.
Вид битрейта : Постоянный
Битрейт : 192 Кбит/сек
Каналы : 2 канала
Расположение каналов : Front: L R
Частота : 48,0 КГц
Битовая глубина : 16 бит
Метод сжатия : С потерями
Размер потока : 31,3 Мбайт (3%)

Аудио #3
Идентификатор : 189 (0xBD)-130 (0x82)
Формат : AC-3
Формат/Информация : Audio Coding 3
Расширение режима : CM (complete main)
Параметр Endianness формата : Big
Режим смешивания : DVD-Video
Продолжительность : 22 м.
Вид битрейта : Постоянный
Битрейт : 192 Кбит/сек
Каналы : 2 канала
Расположение каналов : Front: L R
Частота : 48,0 КГц
Битовая глубина : 16 бит
Метод сжатия : С потерями
Размер потока : 31,3 Мбайт (3%)

Аудио #4
Идентификатор : 189 (0xBD)-131 (0x83)
Формат : AC-3
Формат/Информация : Audio Coding 3
Расширение режима : CM (complete main)
Параметр Endianness формата : Big
Режим смешивания : DVD-Video
Продолжительность : 22 м.
Вид битрейта : Постоянный
Битрейт : 192 Кбит/сек
Каналы : 2 канала
Расположение каналов : Front: L R
Частота : 48,0 КГц
Битовая глубина : 16 бит
Метод сжатия : С потерями
Размер потока : 31,3 Мбайт (3%)

Меню



_________________



реклама партнёра


Вернуться к началу
 Профиль Отправить личное сообщение  
 
   Похожие торренты   Автор   Торрент   Размер 
В этой теме нет новых непрочитанных сообщений. Солдат Джейн / G.I. Jane [боевик, драма, военный, 1997] BDRip 720p, Mvo+Avo+Sub

salma3

52 | 12

5.75 ГБ

В этой теме нет новых непрочитанных сообщений. Джейн берет ружье / Jane Got a Gun [боевик, драма, вестерн, 2015] WEBRip, Dvo

salma3

604 | 11

1.37 ГБ

В этой теме нет новых непрочитанных сообщений. Джейн берет ружье / Jane Got a Gun [боевик, драма, вестерн, 2015] WEBRip-AVC, Dvo

salma3

159 | 5

2.84 ГБ

В этой теме нет новых непрочитанных сообщений. Джейн берет ружье / Jane Got a Gun [боевик, драма, вестерн, 2016] DVD5, Dub

salma3

16 | 2

4.24 ГБ

В этой теме нет новых непрочитанных сообщений. Джейн берёт ружье / Jane Got a Gun [боевик, драма, вестерн, 2015] BDRip 1080p, Dub [Line]

salma3

625 | 214

7.79 ГБ

В этой теме нет новых непрочитанных сообщений. Аферисты Дик и Джейн / Fun with Dick and Jane [комедия, криминал, 2005] DVDRip, Dub

salma3

142 | 7

1.45 ГБ

В этой теме нет новых непрочитанных сообщений. Джейн и потерянный город / Jane and the Lost City [Комедия, приключения, 1987] DVDRip, Dvo

salma3

91 | 36

1.46 ГБ


Начать новую тему Ответить на тему  [ 1 сообщение ] 




Для Мосгорсуда, Роскомнадзора и рекламодателей:: mosgorsud-torrent[собачка]yandex.ru