Торрент файл
скачать торрент магнет ссылка Добавлен: 21 авг 2014, 21:31
Размер: 6.22 ГБ
Сидеров: 15
Личеров: 5
Автор

СообщениеДобавлено: 21 авг 2014, 21:31 

В сети
Супермодератор
Аватара пользователя
Дата регистрации:
15 фев 2012, 16:44
Возраст: 27
Спасибо: 5148 / 2090
Сообщения: 17558
Год выхода: 2003
Жанр: Исторический
Режиссер: Йодзиро Такита
В ролях: Киити Накаи, Коити Сато, Юи Нацукава, Такехиро Мурата, Мики Накатани, Юри Мияке, Йошинори Хирума, Кейсуке Хорибе, Ацуши Ито, Хидеаки Ито, Рё Касэ, Момо Накаяма, Юджин Номура, Аюму Саито, Масато Сакаи, Сансей Шиоми, Коши Тсукамото

О фильме: К середине 19-го века могущество сёгунов стало ослабевать. Вместе с ним подходит к завершению почти тысячелетняя история самураев — элиты японского феодального рыцарства. Эпицентр этого драматического перелома пришелся на Киото и гарнизон его защитников. Перед многими встал выбор: перейти на сторону мятежников или пожертвовать жизнью...



Страна: Япония
Студия: Culture Publishers Inc. (CP), DENTSU Music And Entertainment Inc.
Продолжительность: 02:17:26
Перевод: Профессиональный многоголосый, профессиональный одноголосый

Файл
Кодек: MPEG-2
Качество: DVD-9
Видео: NTSC 16:9 (720x480) VBR
Звук: Русский, японский (Dolby AC3, 2 ch)

1. Профессиональный многоголосый
2. Профессиональный одноголосый
3. Японский
Title: Локальный диск
Size: 6.22 Gb ( 6 520 430 KBytes ) - DVD-9
Enabled regions: 1, 2, 3, 4, 5, 6, 7, 8

VTS_01 :
Play Length: 02:17:26
Video: NTSC 16:9 (720x480) VBR, Auto Pan&Scan
Audio:
Russian (Dolby AC3, 2 ch)
Russian (Dolby AC3, 2 ch)
Japanese (Dolby AC3, 2 ch)

Menu Video:
NTSC 4:3 (720x480) VBR
Menu English Language Unit :
Root Menu
Общее
Полное имя : E:1АААПОСЛЕДНИЙ МЕЧ САМУРАЯVIDEO_TSVTS_01_1.VOB
Формат : MPEG-PS
Размер файла : 1000 Мбайт
Продолжительность : 19 м.
Режим общего битрейта : Переменный
Общий поток : 7324 Кбит/сек

Видео
Идентификатор : 224 (0xE0)
Формат : MPEG Video
Версия формата : Version 2
Профиль формата : Main@Main
Параметр BVOP формата : Да
Параметр матрицы формата : По умолчанию
Параметр GOP формата : M=3, N=12
Продолжительность : 19 м.
Вид битрейта : Переменный
Битрейт : 6602 Кбит/сек
Максимальный битрейт : 8840 Кбит/сек
Ширина : 720 пикселей
Высота : 480 пикселей
Соотношение сторон : 16:9
Частота кадров : 23,976 кадра/сек
Стандарт вещания : NTSC
Цветовое пространство : YUV
Субдискретизация насыщенности : 4:2:0
Битовая глубина : 8 бит
Тип развёртки : Прогрессивная
Порядок развёртки : 2:3 Pulldown
Метод сжатия : С потерями
Бит/(Пиксели*Кадры) : 0.797
TimeCode_FirstFrame : 00:00:00;00
TimeCode_Source : Group of pictures header
Размер потока : 902 Мбайт (90%)

Аудио #1
Идентификатор : 189 (0xBD)-128 (0x80)
Формат : AC-3
Формат/Информация : Audio Coding 3
Расширение режима : CM (complete main)
Параметр Endianness формата : Big
Режим смешивания : DVD-Video
Продолжительность : 19 м.
Вид битрейта : Постоянный
Битрейт : 192 Кбит/сек
Каналы : 2 канала
Расположение каналов : Front: L R
Частота : 48,0 КГц
Битовая глубина : 16 бит
Метод сжатия : С потерями
Размер потока : 26,2 Мбайт (3%)

Аудио #2
Идентификатор : 189 (0xBD)-129 (0x81)
Формат : AC-3
Формат/Информация : Audio Coding 3
Расширение режима : CM (complete main)
Параметр Endianness формата : Big
Режим смешивания : DVD-Video
Продолжительность : 19 м.
Вид битрейта : Постоянный
Битрейт : 192 Кбит/сек
Каналы : 2 канала
Расположение каналов : Front: L R
Частота : 48,0 КГц
Битовая глубина : 16 бит
Метод сжатия : С потерями
Размер потока : 26,2 Мбайт (3%)

Аудио #3
Идентификатор : 189 (0xBD)-130 (0x82)
Формат : AC-3
Формат/Информация : Audio Coding 3
Расширение режима : CM (complete main)
Параметр Endianness формата : Big
Режим смешивания : DVD-Video
Продолжительность : 19 м.
Вид битрейта : Постоянный
Битрейт : 192 Кбит/сек
Каналы : 2 канала
Расположение каналов : Front: L R
Частота : 48,0 КГц
Битовая глубина : 16 бит
Метод сжатия : С потерями
Размер потока : 26,2 Мбайт (3%)

Меню


_________________



реклама партнёра


Вернуться к началу
 Профиль Отправить личное сообщение  
 
   Похожие торренты   Автор   Торрент   Размер 
В этой теме нет новых непрочитанных сообщений. Меч мести / Sword of Vengeance (Джим Видон) [2015, боевик, исторический, WEB-DLRip] dvo

Nickolas3435

344 | 35

745.96 МБ

В этой теме нет новых непрочитанных сообщений. Меч мести / Sword of Vengeance (Джим Видон) [2015, боевик, исторический, WEB-DLRip] dvo

Nickolas3435

1126 | 62

1.36 ГБ

В этой теме нет новых непрочитанных сообщений. Меч мести / Sword of Vengeance (Джим Видон) [боевик, исторический, 2015] WEB-DLRip, avo

Dracon

2171 | 75

1.37 ГБ

В этой теме нет новых непрочитанных сообщений. Меч мести / Sword of Vengeance (Джим Видон) [боевик, исторический, 2015] WEB-DL 720p, avo

Dracon

985 | 38

2.76 ГБ

В этой теме нет новых непрочитанных сообщений. Шуаны! / Chouans! [Исторический, приключения, военный, 1987] DVD9, Avo

salma3

5 | 4

11.57 ГБ

В этой теме нет новых непрочитанных сообщений. Иерей-сан. Исповедь самурая [боевик, драма, 2015] Blu-ray 1080i [Лицензия]

Dracon

241 | 116

17.55 ГБ

В этой теме нет новых непрочитанных сообщений. Иерей-сан. Исповедь самурая [боевик, драма, 2015] BDRip 1080p [Лицензия]

Dracon

246 | 24

9.94 ГБ


Начать новую тему Ответить на тему  [ 1 сообщение ] 




Для Мосгорсуда, Роскомнадзора и рекламодателей:: mosgorsud-torrent[собачка]yandex.ru