Торрент файл
скачать торрент магнет ссылка Добавлен: 21 авг 2014, 21:30
Размер: 6.56 ГБ
Сидеров: 0
Личеров: 5
Автор

СообщениеДобавлено: 21 авг 2014, 21:30 

В сети
Супермодератор
Аватара пользователя
Дата регистрации:
15 фев 2012, 16:44
Возраст: 27
Спасибо: 5121 / 2089
Сообщения: 17274
Год выхода: 1991
Жанр: Боевик
Режиссер: Дэниел Питри мл.
В ролях: Шон Эстин, Уил Уитон, Кит Куган, Эндрю Дивофф, Р. Ли Эрми, Мейсон Эдамс, Денхолм Эллиотт, Луис Госсет мл., Джордж Перес, Т. Э. Рассел, Шоун Фелан, Майкл Чэмпион, Трейси Брук Своуп, Макс Мэнвелл, Джо Инскоу, Джерри Лайден, Рене Гатика, Джереми МакЛерран, Джесси Доран

О фильме: Когда учащиеся элитарного колледжа взяты в заложники южноамериканскими террористами, им ничего не остается, как вступить в смертельную схватку. Сержант армии встает во главе отряда студентов в их отчаянной попытке противостоять террору.

Страна: США
Студия: Island World, TriStar Pictures, MGM
Продолжительность: 01:52:03
Перевод: Профессиональный многоголосый, профессиональный двухголосый, авторский

Файл
Кодек: MPEG-2
Качество: DVD-9
Видео:
Звук: Русский (Dolby AC3, 2 ch)

1. Профессиональный многоголосый (Норд Видео)
2. Профессиональный многоголосый (SDI MEDIA)
3. Профессиональный многоголосый (ОРТ)
4. Профессиональный двухголосый (НТВ+)
5. Авторский (Дохалов)
6. Английский
Title: Локальный диск
Size: 6.56 Gb ( 6 882 916 KBytes ) - DVD-9
Enabled regions: 1, 2, 3, 4, 5, 6, 7, 8

VTS_01 :
Play Length: 01:51:57
Video: NTSC 16:9 (720x480) VBR, Auto Pan&Scan
Audio:
Russian (Dolby AC3, 2 ch)
Russian (Dolby AC3, 2 ch)
Russian (Dolby AC3, 2 ch)
Russian (Dolby AC3, 2 ch)
Russian (Dolby AC3, 2 ch)
English (Dolby AC3, 2 ch)

Menu Video:
NTSC 4:3 (720x480) VBR
Menu English Language Unit :
Root Menu
Общее
Полное имя : E:1АААИГРУШЕЧНЫЕ СОЛДАТИКИVIDEO_TSVTS_01_1.VOB
Формат : MPEG-PS
Размер файла : 1000 Мбайт
Продолжительность : 16 м.
Режим общего битрейта : Переменный
Общий поток : 8497 Кбит/сек

Видео
Идентификатор : 224 (0xE0)
Формат : MPEG Video
Версия формата : Version 2
Профиль формата : Main@Main
Параметр BVOP формата : Да
Параметр матрицы формата : По умолчанию
Параметр GOP формата : M=3, N=12
Продолжительность : 16 м.
Вид битрейта : Переменный
Битрейт : 7176 Кбит/сек
Максимальный битрейт : 8056 Кбит/сек
Ширина : 720 пикселей
Высота : 480 пикселей
Соотношение сторон : 16:9
Частота кадров : 23,976 кадра/сек
Стандарт вещания : NTSC
Цветовое пространство : YUV
Субдискретизация насыщенности : 4:2:0
Битовая глубина : 8 бит
Тип развёртки : Прогрессивная
Порядок развёртки : 2:3 Pulldown
Метод сжатия : С потерями
Бит/(Пиксели*Кадры) : 0.866
TimeCode_FirstFrame : 00:00:00;00
TimeCode_Source : Group of pictures header
Размер потока : 845 Мбайт (84%)

Аудио #1
Идентификатор : 189 (0xBD)-128 (0x80)
Формат : AC-3
Формат/Информация : Audio Coding 3
Расширение режима : CM (complete main)
Параметр Endianness формата : Big
Режим смешивания : DVD-Video
Продолжительность : 16 м.
Вид битрейта : Постоянный
Битрейт : 192 Кбит/сек
Каналы : 2 канала
Расположение каналов : Front: L R
Частота : 48,0 КГц
Битовая глубина : 16 бит
Метод сжатия : С потерями
Размер потока : 22,6 Мбайт (2%)

Аудио #2
Идентификатор : 189 (0xBD)-129 (0x81)
Формат : AC-3
Формат/Информация : Audio Coding 3
Расширение режима : CM (complete main)
Параметр Endianness формата : Big
Режим смешивания : DVD-Video
Продолжительность : 16 м.
Вид битрейта : Постоянный
Битрейт : 192 Кбит/сек
Каналы : 2 канала
Расположение каналов : Front: L R
Частота : 48,0 КГц
Битовая глубина : 16 бит
Метод сжатия : С потерями
Размер потока : 22,6 Мбайт (2%)

Аудио #3
Идентификатор : 189 (0xBD)-130 (0x82)
Формат : AC-3
Формат/Информация : Audio Coding 3
Расширение режима : CM (complete main)
Параметр Endianness формата : Big
Режим смешивания : DVD-Video
Продолжительность : 16 м.
Вид битрейта : Постоянный
Битрейт : 192 Кбит/сек
Каналы : 2 канала
Расположение каналов : Front: L R
Частота : 48,0 КГц
Битовая глубина : 16 бит
Метод сжатия : С потерями
Размер потока : 22,6 Мбайт (2%)

Аудио #4
Идентификатор : 189 (0xBD)-131 (0x83)
Формат : AC-3
Формат/Информация : Audio Coding 3
Расширение режима : CM (complete main)
Параметр Endianness формата : Big
Режим смешивания : DVD-Video
Продолжительность : 16 м.
Вид битрейта : Постоянный
Битрейт : 192 Кбит/сек
Каналы : 2 канала
Расположение каналов : Front: L R
Частота : 48,0 КГц
Битовая глубина : 16 бит
Метод сжатия : С потерями
Размер потока : 22,6 Мбайт (2%)

Аудио #5
Идентификатор : 189 (0xBD)-132 (0x84)
Формат : AC-3
Формат/Информация : Audio Coding 3
Расширение режима : CM (complete main)
Параметр Endianness формата : Big
Режим смешивания : DVD-Video
Продолжительность : 16 м.
Вид битрейта : Постоянный
Битрейт : 192 Кбит/сек
Каналы : 2 канала
Расположение каналов : Front: L R
Частота : 48,0 КГц
Битовая глубина : 16 бит
Метод сжатия : С потерями
Размер потока : 22,6 Мбайт (2%)

Аудио #6
Идентификатор : 189 (0xBD)-133 (0x85)
Формат : AC-3
Формат/Информация : Audio Coding 3
Расширение режима : CM (complete main)
Параметр Endianness формата : Big
Режим смешивания : DVD-Video
Продолжительность : 16 м.
Вид битрейта : Постоянный
Битрейт : 192 Кбит/сек
Каналы : 2 канала
Расположение каналов : Front: L R
Частота : 48,0 КГц
Битовая глубина : 16 бит
Метод сжатия : С потерями
Размер потока : 22,6 Мбайт (2%)

Меню


_________________



реклама партнёра


Вернуться к началу
 Профиль Отправить личное сообщение  
 
   Похожие торренты   Автор   Торрент   Размер 
В этой теме нет новых непрочитанных сообщений. Игрушечные солдатики / Toy Soldiers [Боевик, триллер, драма, 1991] BDRip 720p, 3Mvo+Dvo+Avo+Sub

salma3

12 | 5

7.07 ГБ

В этой теме нет новых непрочитанных сообщений. Игрушечные солдатики / Toy Soldiers [Боевик, триллер, драма, 1991] BDRemux 1080i, 3Mvo+Dvo+Avo+Sub

salma3

0 | 2

16.79 ГБ

В этой теме нет новых непрочитанных сообщений. Игрушечные солдатики / Toy Soldiers [боевик, триллер, драма, 1991] BDRip 1080p, 3Mvo+Dvo+Avo+Sub

salma3

38 | 13

10.92 ГБ

В этой теме нет новых непрочитанных сообщений. Солдатики / Small Soldiers [Фантастика, семейный, 1998] BDRip 1080p, 3Mvo+Avo

salma3

18 | 7

8.66 ГБ

В этой теме нет новых непрочитанных сообщений. Солдатики / Small Soldiers [Фантастика, семейный, 1998] BDRemux 1080p, 3Mvo+Avo+Sub

salma3

15 | 5

27.87 ГБ

В этой теме нет новых непрочитанных сообщений. Смертельные узы / Wedlock [Фантастика, боевик, триллер, 1991] DVD9, Dvo+Avo

salma3

7 | 7

6.75 ГБ

В этой теме нет новых непрочитанных сообщений. Замороженные солдаты / Ice Soldiers [Фантастика, боевик, 2013] BDRemux 1080p, Avo+Sub

salma3

11 | 2

18.01 ГБ


Начать новую тему Ответить на тему  [ 1 сообщение ] 




Для Мосгорсуда, Роскомнадзора и рекламодателей:: mosgorsud-torrent[собачка]yandex.ru