Торрент файл
скачать торрент магнет ссылка Добавлен: 21 авг 2014, 09:47
Размер: 7.35 ГБ
Сидеров: 6
Личеров: 6
Автор

СообщениеДобавлено: 21 авг 2014, 09:47 

Не в сети
Супермодератор
Аватара пользователя
Дата регистрации:
15 фев 2012, 16:44
Возраст: 27
Спасибо: 5121 / 2089
Сообщения: 17296
Год выхода: 1966
Жанр: Приключения, драма
Режиссер: Корнел Уайлд
В ролях: Корнел Уайлд, Герт Ван дер Берг, Кен Гампу, Белла Рэндлс, Моррисон Гампу, Джон Маркус, Эрик Мканвана, Санди Нкомо, Ричард Нашива, Франклин Мдхлули, Фузи Зазаиокве, Джо Дламини, Хосе Ситхоул, Хорас Гилма

О фильме: Находясь на африканском сафари, группа охотников встречает представителей туземного племени. Отказавшись сделать подарок местным, охотники подписывают себе смертный приговор. Последнему оставшемуся в живых вождь дарует «шанс льва» — без одежды и без оружия под палящим солнцем он должен спастись от охотящихся на него аборигенов.
Страна: США, ЮАР
Студия: Sven Persson Films, Theodora Productions
Продолжительность: 01:35:38
Перевод: Профессиональный многоголосый
Субтитры: Русские, английские

Файл
Кодек: MPEG-2
Качество: DVD-9
Видео: NTSC 16:9 (720x480) VBR
Звук: Русский, английский (Dolby AC3, 1 ch)

Title: Локальный диск
Size: 7.35 Gb ( 7 706 080 KBytes ) - DVD-9
Enabled regions: 1, 2, 3, 4, 5, 6, 7, 8

VTS_01 :
Play Length: 01:35:38
Video: NTSC 16:9 (720x480) VBR, Auto Pan&Scan
Audio:
Russian (Dolby AC3, 1 ch)
English (Dolby AC3, 1 ch)
English (Dolby AC3, 1 ch)
Subtitles:
English
Russian

VTS_02 :
Play Length: 00:00:06
Video: NTSC 4:3 (720x480) VBR

VTS_03 :
Play Length: 00:00:06
Video: NTSC 4:3 (720x480) VBR

VTS_04 :
Play Length: 00:04:57
Video: NTSC 4:3 (720x480) VBR
Audio:
English (Dolby AC3, 1 ch)

VTS_05 :
Play Length: 00:03:14
Video: NTSC 16:9 (720x480) VBR, Auto Pan&Scan
Audio:
English (Dolby AC3, 1 ch)

VTS_06 :
Play Length: 00:00:20
Video: NTSC 4:3 (720x480) VBR
Audio:
Francais (Dolby AC3, 1 ch)

VTS_07 :
Play Length: 00:00:20
Video: NTSC 4:3 (720x480) VBR
Audio:
Francais (Dolby AC3, 1 ch)

VTS_08 :
Play Length: 00:01:49
Video: NTSC 16:9 (720x480) VBR, Auto Pan&Scan
Audio:
English (Dolby AC3, 1 ch)

Menu Video:
NTSC 4:3 (720x480) VBR
Auto Pan&Scan, Auto Letterboxed
Menu English Language Unit :
Root Menu
Общее
Полное имя : E:1АААГОЛАЯ ДОБЫЧАVIDEO_TSVTS_01_1.VOB
Формат : MPEG-PS
Размер файла : 1024 Мбайт
Продолжительность : 14 м.
Режим общего битрейта : Переменный
Общий поток : 9752 Кбит/сек

Видео
Идентификатор : 224 (0xE0)
Формат : MPEG Video
Версия формата : Version 2
Профиль формата : Main@Main
Параметр BVOP формата : Да
Параметр матрицы формата : Выборочная
Параметр GOP формата : Variable
Продолжительность : 14 м.
Вид битрейта : Переменный
Битрейт : 9000 Кбит/сек
Ширина : 720 пикселей
Высота : 480 пикселей
Соотношение сторон : 16:9
Частота кадров : 23,976 кадра/сек
Стандарт вещания : NTSC
Цветовое пространство : YUV
Субдискретизация насыщенности : 4:2:0
Битовая глубина : 8 бит
Тип развёртки : Прогрессивная
Порядок развёртки : 2:3 Pulldown
Метод сжатия : С потерями
Бит/(Пиксели*Кадры) : 1.086
TimeCode_FirstFrame : 00:59:46:10
TimeCode_Source : Group of pictures header
Размер потока : 943 Мбайт (92%)

Аудио #1
Идентификатор : 189 (0xBD)-128 (0x80)
Формат : AC-3
Формат/Информация : Audio Coding 3
Расширение режима : CM (complete main)
Параметр Endianness формата : Big
Режим смешивания : DVD-Video
Продолжительность : 14 м.
Вид битрейта : Постоянный
Битрейт : 192 Кбит/сек
Каналы : 2 канала
Расположение каналов : Front: L R
Частота : 48,0 КГц
Битовая глубина : 16 бит
Метод сжатия : С потерями
Размер потока : 20,2 Мбайт (2%)

Аудио #2
Идентификатор : 189 (0xBD)-129 (0x81)
Формат : AC-3
Формат/Информация : Audio Coding 3
Расширение режима : CM (complete main)
Параметр Endianness формата : Big
Режим смешивания : DVD-Video
Продолжительность : 14 м.
Вид битрейта : Постоянный
Битрейт : 192 Кбит/сек
Каналы : 1 канал
Расположение каналов : Front: C
Частота : 48,0 КГц
Битовая глубина : 16 бит
Метод сжатия : С потерями
Размер потока : 20,2 Мбайт (2%)

Аудио #3
Идентификатор : 189 (0xBD)-130 (0x82)
Формат : AC-3
Формат/Информация : Audio Coding 3
Расширение режима : CM (complete main)
Параметр Endianness формата : Big
Режим смешивания : DVD-Video
Продолжительность : 14 м.
Вид битрейта : Постоянный
Битрейт : 192 Кбит/сек
Каналы : 1 канал
Расположение каналов : Front: C
Частота : 48,0 КГц
Битовая глубина : 16 бит
Метод сжатия : С потерями
Размер потока : 20,2 Мбайт (2%)

Меню


_________________



реклама партнёра


Вернуться к началу
 Профиль Отправить личное сообщение  
 
   Похожие торренты   Автор   Торрент   Размер 
В этой теме нет новых непрочитанных сообщений. Голая добыча / The Naked Prey [Приключения, драма, 1966] HDTV 1080i, Mvo

salma3

58 | 11

3.32 ГБ

В этой теме нет новых непрочитанных сообщений. Гавайи / Hawaii [Драма, приключения, 1966] HDTV 1080i, Mvo

salma3

2 | 1

6.76 ГБ

В этой теме нет новых непрочитанных сообщений. Черное солнце / Soleil noir [драма, приключения, 1966] DVВRip, Mvo

salma3

1 | 2

1.42 ГБ

В этой теме нет новых непрочитанных сообщений. Prey On The Fallen - Prey On The Fallen [2013,Southern Metal,Heavy Metal,mp3]

PriZraK

0 | 1

100.18 МБ

В этой теме нет новых непрочитанных сообщений. Голая бухта / Vuosaari [драма, 2012] HDRip, Mvo

salma3

13 | 3

1.46 ГБ

В этой теме нет новых непрочитанных сообщений. Миссия невыполнима / Mission: Impossible [S01] [боевик, триллер, драма, приключения, 1966] DVDRip, Avo [Белов]

salma3

99 | 68

11.71 ГБ

В этой теме нет новых непрочитанных сообщений. Тройной крест / Triple cross [боевик, триллер, драма, приключения, военный, 1966] BDRip 1080p, Mvo+Avo

salma3

7 | 5

11.45 ГБ


Начать новую тему Ответить на тему  [ 1 сообщение ] 




Для Мосгорсуда, Роскомнадзора и рекламодателей:: mosgorsud-torrent[собачка]yandex.ru