Торрент файл
скачать торрент магнет ссылка Добавлен: 16 авг 2014, 09:59
Размер: 4.37 ГБ
Сидеров: 2
Личеров: 5
Автор

СообщениеДобавлено: 16 авг 2014, 09:59 

Не в сети
Супермодератор
Аватара пользователя
Дата регистрации:
15 фев 2012, 16:44
Возраст: 28
Спасибо: 6594 / 2145
Сообщения: 44279
Год выхода: 1996
Жанр: Боевик
Режиссер: Дэвид ДеКото

В ролях: Максвелл Колфилд, Тревор Годдард, Линда Блэр, Стейси Кич, Пол Реджина, Пол Бартел, Том Бэдэл, Файона Хатчисон, Стивен Винсент Ли, Джон Фудзиока, Винсент Клин

О фильме: Проведя блестящее расследование, Агент Дерек Ли посадил местного наркобарона в тюрьму, и, чтобы спасти свою жизнь, участвовал в программе по защите свидетелей. Годы спустя наемные убийцы все же нашли Дерека и убили всю его семью. Теперь смыслом всей жизни Дерека становится месть…



Страна: США
Студия: Hit Entertainment, HIT Entertainment PLC, Jfw Productions Inc.
Продолжительность: 01:32:07
Перевод: Профессиональный многоголосый, авторский

Файл
Кодек: MPEG-2
Качество: DVD-5
Видео: PAL 4:3 (720x576) VBR
Звук: Русский, английский (Dolby AC3, 6 ch), русский (Dolby AC3, 2 ch)

1. Профессиональный многоголосый
2. Английский
3. Авторский (Сербин)
Title: Локальный диск
Size: 4.37 Gb ( 4 577 710 KBytes ) - DVD-5
Enabled regions: 1, 2, 3, 4, 5, 6, 7, 8

VTS_01 :
Play Length: 00:00:13
Video: PAL 4:3 (720x576) VBR
Audio:
Russian (Dolby AC3, 6 ch)

VTS_02 :
Play Length: 00:02:08
Video: PAL 16:9 (720x576) VBR, Auto Pan&Scan
Audio:
Russian (Dolby AC3, 6 ch)

VTS_03 :
Play Length: 00:01:17
Video: PAL 16:9 (720x576) VBR, Auto Pan&Scan
Audio:
Not specified (Dolby AC3, 2 ch)

VTS_04 :
Play Length: 01:32:07
Video: PAL 4:3 (720x576) VBR
Audio:
Russian (Dolby AC3, 6 ch)
English (Dolby AC3, 6 ch)
Russian (Dolby AC3, 2 ch)

Menu Video:
NTSC 4:3 (720x480) VBR
Auto Pan&Scan, Auto Letterboxed
Menu English Language Unit :
Root Menu
Общее
Полное имя : E:1АААЖертва ягуараVIDEO_TSVTS_04_1.VOB
Формат : MPEG-PS
Размер файла : 1024 Мбайт
Продолжительность : 22 м.
Режим общего битрейта : Переменный
Общий поток : 6452 Кбит/сек

Видео
Идентификатор : 224 (0xE0)
Формат : MPEG Video
Версия формата : Version 2
Профиль формата : Main@Main
Параметр BVOP формата : Да
Параметр матрицы формата : Выборочная
Параметр GOP формата : M=3, N=15
Продолжительность : 22 м.
Вид битрейта : Переменный
Битрейт : 5364 Кбит/сек
Максимальный битрейт : 8500 Кбит/сек
Ширина : 720 пикселей
Высота : 576 пикселей
Соотношение сторон : 4:3
Частота кадров : 25,000 кадров/сек
Стандарт вещания : PAL
Цветовое пространство : YUV
Субдискретизация насыщенности : 4:2:0
Битовая глубина : 8 бит
Тип развёртки : Чересстрочная
Порядок развёртки : Верхнее поле первое
Метод сжатия : С потерями
Бит/(Пиксели*Кадры) : 0.517
TimeCode_FirstFrame : 00:00:00:00
TimeCode_Source : Group of pictures header
Размер потока : 851 Мбайт (83%)

Аудио #1
Идентификатор : 189 (0xBD)-128 (0x80)
Формат : AC-3
Формат/Информация : Audio Coding 3
Расширение режима : CM (complete main)
Параметр Endianness формата : Big
Режим смешивания : DVD-Video
Продолжительность : 22 м.
Вид битрейта : Постоянный
Битрейт : 384 Кбит/сек
Каналы : 6 каналов
Расположение каналов : Front: L C R, Side: L R, LFE
Частота : 48,0 КГц
Битовая глубина : 16 бит
Метод сжатия : С потерями
Задержка видео : -80 мс.
Размер потока : 60,9 Мбайт (6%)

Аудио #2
Идентификатор : 189 (0xBD)-129 (0x81)
Формат : AC-3
Формат/Информация : Audio Coding 3
Расширение режима : CM (complete main)
Параметр Endianness формата : Big
Режим смешивания : DVD-Video
Продолжительность : 22 м.
Вид битрейта : Постоянный
Битрейт : 384 Кбит/сек
Каналы : 6 каналов
Расположение каналов : Front: L C R, Side: L R, LFE
Частота : 48,0 КГц
Битовая глубина : 16 бит
Метод сжатия : С потерями
Задержка видео : -80 мс.
Размер потока : 60,9 Мбайт (6%)

Аудио #3
Идентификатор : 189 (0xBD)-130 (0x82)
Формат : AC-3
Формат/Информация : Audio Coding 3
Расширение режима : CM (complete main)
Параметр Endianness формата : Big
Режим смешивания : DVD-Video
Продолжительность : 22 м.
Вид битрейта : Постоянный
Битрейт : 192 Кбит/сек
Каналы : 2 канала
Расположение каналов : Front: L R
Частота : 48,0 КГц
Битовая глубина : 16 бит
Метод сжатия : С потерями
Задержка видео : -80 мс.
Размер потока : 30,5 Мбайт (3%)

Меню


_________________
Проголосуй за трекер Открытый торрент трекер - RUS-MEDIA.ORG

Проголосуй Открытый торрент трекер - RUS-MEDIA.ORG



реклама партнёра


Вернуться к началу
 Профиль Отправить личное сообщение  
 
   Похожие торренты   Автор   Торрент   Размер 
В этой теме нет новых непрочитанных сообщений. Жертва / Prey [02х01-02 из 03] (Ник Мерфи, Льюис Арнольд) [2015, триллер, драма, криминал, HDTVRip | SunshineStudio]

PriZraK

20 | 1

1019.74 МБ

В этой теме нет новых непрочитанных сообщений. Жертва / Prey [S02] (Ник Мерфи, Льюис Арнольд) [2015, криминал, драма, триллер, детектив, HDTVRip | ViruseProject]

Nickolas3434

62 | 6

1.78 ГБ

В этой теме нет новых непрочитанных сообщений. Жертва / Prey [S02] (Ник Мерфи, Льюис Арнольд) [2015, криминал, драма, триллер, детектив, HDTVRip 720р | ViruseProject]

Nickolas3435

101 | 14

2.97 ГБ

В этой теме нет новых непрочитанных сообщений. Ягуар / Le Jaguar [Приключения, комедия, 1996] HDTVRip 720p, 3Mvo+Sub

salma3

184 | 27

3.91 ГБ

В этой теме нет новых непрочитанных сообщений. Жертва / Kurbaan [боевик, триллер, драма, мелодрама, 2009] HDRip, Mvo [Zee TV]

salma3

15 | 4

1.46 ГБ

В этой теме нет новых непрочитанных сообщений. Приговорённые 2: Охота в пустыне / The Condemned 2: Desert Prey [боевик, 2015] HDRip, Dub [iTunes]

salma3

3334 | 218

1.37 ГБ

В этой теме нет новых непрочитанных сообщений. Напрасная жертва [Драма, 2014] HDTVRip

Dracon

4 | 3

1.37 ГБ


Начать новую тему Ответить на тему  [ 1 сообщение ] 




Для Мосгорсуда, Роскомнадзора и рекламодателей:: mosgorsud-torrent[собачка]yandex.ru