Торрент файл
скачать торрент магнет ссылка Добавлен: 15 авг 2014, 22:47
Размер: 5.29 ГБ
Сидеров: 1
Личеров: 3
Автор

СообщениеДобавлено: 15 авг 2014, 22:47 

Не в сети
Супермодератор
Аватара пользователя
Дата регистрации:
15 фев 2012, 16:44
Возраст: 27
Спасибо: 5143 / 2090
Сообщения: 17495
Год выхода: 1975
Жанр: Триллер, приключения
Режиссер: Клинт Иствуд
В ролях: Клинт Иствуд, Джордж Кеннеди, Вонетта МакГи, Джек Кэссиди, Хайди Брюль, Тэйер Дэвид, Рейнер Шёне, Михаэль Гримм, Жан-Пьерр Бернард, Бренда Венус

О фильме: Джонатан Хемлок — ушедший в отставку агент правительственных спецслужб, теперь занимается педагогической деятельностью в колледже искусств. Однако зарплаты педагога, разумеется, не хватает на удовлетворение его главной страсти — коллекционирования живописных полотен, поэтому время от времени Джонатан принимает на себя новые секретные задание. Новая миссия — одна из самых опасных в карьере. Он должен «вычислить» и уничтожить шпиона, находящегося в составе альпинистской группы. Для этого ему придется вместе со всеми совершить восхождение на опасный пик Эйгер в Швейцарских Альпах…



Страна: США
Студия: Jennings Lang, The Malpaso Company, Universal Pictures
Продолжительность: 02:08:45
Перевод: Дублированный, профессиональный многоголосый

Файл
Кодек: MPEG-2
Качество: DVD-9
Видео: NTSC 16:9 (720x480) VBR
Звук: Русский, английский, немецкий, французский, испанский, итальянский, японский (Dolby AC3, 2 ch)

Title: Локальный диск
Size: 5.29 Gb ( 5 551 110 KBytes ) - DVD-9
Enabled regions: 1, 2, 3, 4, 5, 6, 7, 8

VTS_01 :
Play Length: 02:08:45
Video: NTSC 16:9 (720x480) VBR, Auto Pan&Scan
Audio:
Russian (Dolby AC3, 2 ch)
Russian (Dolby AC3, 2 ch)
English (Dolby AC3, 2 ch)
Deutsch (Dolby AC3, 2 ch)
Francais (Dolby AC3, 2 ch)
Espanol (Dolby AC3, 2 ch)
Italiano (Dolby AC3, 2 ch)
Japanese (Dolby AC3, 2 ch)

Menu Video:
NTSC 4:3 (720x480) VBR
Menu English Language Unit :
Root Menu
Общее
Полное имя : E:1АААСАНКЦИЯ НА ПИКЕ ЭЙГЕРАVIDEO_TSVTS_01_1.VOB
Формат : MPEG-PS
Размер файла : 1000 Мбайт
Продолжительность : 35 м.
Режим общего битрейта : Переменный
Общий поток : 3908 Кбит/сек

Видео
Идентификатор : 224 (0xE0)
Формат : MPEG Video
Версия формата : Version 2
Профиль формата : Main@Main
Параметр BVOP формата : Да
Параметр матрицы формата : По умолчанию
Параметр GOP формата : M=3, N=12
Продолжительность : 35 м.
Вид битрейта : Переменный
Битрейт : 2294 Кбит/сек
Максимальный битрейт : 9200 Кбит/сек
Ширина : 720 пикселей
Высота : 480 пикселей
Соотношение сторон : 16:9
Частота кадров : 23,976 кадра/сек
Стандарт вещания : NTSC
Цветовое пространство : YUV
Субдискретизация насыщенности : 4:2:0
Битовая глубина : 8 бит
Тип развёртки : Прогрессивная
Порядок развёртки : 2:3 Pulldown
Метод сжатия : С потерями
Бит/(Пиксели*Кадры) : 0.277
TimeCode_FirstFrame : 00:00:00;00
TimeCode_Source : Group of pictures header
Размер потока : 587 Мбайт (59%)

Аудио #1
Идентификатор : 189 (0xBD)-128 (0x80)
Формат : AC-3
Формат/Информация : Audio Coding 3
Расширение режима : CM (complete main)
Параметр Endianness формата : Big
Режим смешивания : DVD-Video
Продолжительность : 35 м.
Вид битрейта : Постоянный
Битрейт : 192 Кбит/сек
Каналы : 2 канала
Расположение каналов : Front: L R
Частота : 48,0 КГц
Битовая глубина : 16 бит
Метод сжатия : С потерями
Размер потока : 49,1 Мбайт (5%)

Аудио #2
Идентификатор : 189 (0xBD)-129 (0x81)
Формат : AC-3
Формат/Информация : Audio Coding 3
Расширение режима : CM (complete main)
Параметр Endianness формата : Big
Режим смешивания : DVD-Video
Продолжительность : 35 м.
Вид битрейта : Постоянный
Битрейт : 192 Кбит/сек
Каналы : 2 канала
Расположение каналов : Front: L R
Частота : 48,0 КГц
Битовая глубина : 16 бит
Метод сжатия : С потерями
Размер потока : 49,1 Мбайт (5%)

Аудио #3
Идентификатор : 189 (0xBD)-130 (0x82)
Формат : AC-3
Формат/Информация : Audio Coding 3
Расширение режима : CM (complete main)
Параметр Endianness формата : Big
Режим смешивания : DVD-Video
Продолжительность : 35 м.
Вид битрейта : Постоянный
Битрейт : 192 Кбит/сек
Каналы : 2 канала
Расположение каналов : Front: L R
Частота : 48,0 КГц
Битовая глубина : 16 бит
Метод сжатия : С потерями
Размер потока : 49,1 Мбайт (5%)

Аудио #4
Идентификатор : 189 (0xBD)-131 (0x83)
Формат : AC-3
Формат/Информация : Audio Coding 3
Расширение режима : CM (complete main)
Параметр Endianness формата : Big
Режим смешивания : DVD-Video
Продолжительность : 35 м.
Вид битрейта : Постоянный
Битрейт : 192 Кбит/сек
Каналы : 2 канала
Расположение каналов : Front: L R
Частота : 48,0 КГц
Битовая глубина : 16 бит
Метод сжатия : С потерями
Размер потока : 49,1 Мбайт (5%)

Аудио #5
Идентификатор : 189 (0xBD)-132 (0x84)
Формат : AC-3
Формат/Информация : Audio Coding 3
Расширение режима : CM (complete main)
Параметр Endianness формата : Big
Режим смешивания : DVD-Video
Продолжительность : 35 м.
Вид битрейта : Постоянный
Битрейт : 192 Кбит/сек
Каналы : 2 канала
Расположение каналов : Front: L R
Частота : 48,0 КГц
Битовая глубина : 16 бит
Метод сжатия : С потерями
Размер потока : 49,1 Мбайт (5%)

Аудио #6
Идентификатор : 189 (0xBD)-133 (0x85)
Формат : AC-3
Формат/Информация : Audio Coding 3
Расширение режима : CM (complete main)
Параметр Endianness формата : Big
Режим смешивания : DVD-Video
Продолжительность : 35 м.
Вид битрейта : Постоянный
Битрейт : 192 Кбит/сек
Каналы : 2 канала
Расположение каналов : Front: L R
Частота : 48,0 КГц
Битовая глубина : 16 бит
Метод сжатия : С потерями
Размер потока : 49,1 Мбайт (5%)

Аудио #7
Идентификатор : 189 (0xBD)-134 (0x86)
Формат : AC-3
Формат/Информация : Audio Coding 3
Расширение режима : CM (complete main)
Параметр Endianness формата : Big
Режим смешивания : DVD-Video
Продолжительность : 35 м.
Вид битрейта : Постоянный
Битрейт : 192 Кбит/сек
Каналы : 2 канала
Расположение каналов : Front: L R
Частота : 48,0 КГц
Битовая глубина : 16 бит
Метод сжатия : С потерями
Размер потока : 49,1 Мбайт (5%)

Аудио #8
Идентификатор : 189 (0xBD)-135 (0x87)
Формат : AC-3
Формат/Информация : Audio Coding 3
Расширение режима : CM (complete main)
Параметр Endianness формата : Big
Режим смешивания : DVD-Video
Продолжительность : 35 м.
Вид битрейта : Постоянный
Битрейт : 192 Кбит/сек
Каналы : 2 канала
Расположение каналов : Front: L R
Частота : 48,0 КГц
Битовая глубина : 16 бит
Метод сжатия : С потерями
Размер потока : 49,1 Мбайт (5%)

Меню


_________________



реклама партнёра


Вернуться к началу
 Профиль Отправить личное сообщение  
 
   Похожие торренты   Автор   Торрент   Размер 
В этой теме нет новых непрочитанных сообщений. Санкция на пике Эйгера / The Eiger Sanction [Боевик, триллер, мелодрама, приключения, 1975] BDRip 720p, Dub+Mvo+Sub

salma3

20 | 2

4.56 ГБ

В этой теме нет новых непрочитанных сообщений. Sanction-X - The Last Day [2009, Melodic Heavy Metal, Hard Rock, MP3]

PriZraK

0 | 1

116.39 МБ

В этой теме нет новых непрочитанных сообщений. Бутон розы / Розовый бутон / Rosebud [триллер, драма, приключения, 1975] DVDRip, Mvo

salma3

3 | 3

1.46 ГБ

В этой теме нет новых непрочитанных сообщений. Дивергент / Divergent [Фантастика, боевик, триллер, приключения, 2014] DVD9, Dub [Лицензия]

salma3

75 | 9

7.16 ГБ

В этой теме нет новых непрочитанных сообщений. Скалолаз / Cliffhanger [боевик, триллер, приключения, 1993] DVD9, Dvo+Sub [Режиссерская версия]

salma3

13 | 7

7.06 ГБ

В этой теме нет новых непрочитанных сообщений. Бегущий в лабиринте / The Maze Runner [фантастика, триллер, приключения, 2014] DVD9, Dub+Sub [Лицензия]

salma3

94 | 4

6.83 ГБ

В этой теме нет новых непрочитанных сообщений. Зорро / Zorro [Приключения, 1975] BDRip 1080p, Dub+Mvo+Sub

salma3

45 | 3

7.76 ГБ


Начать новую тему Ответить на тему  [ 1 сообщение ] 




Для Мосгорсуда, Роскомнадзора и рекламодателей:: mosgorsud-torrent[собачка]yandex.ru