Торрент файл
скачать торрент магнет ссылка Добавлен: 08 июл 2014, 14:41
Размер: 3.8 ГБ
Сидеров: 7
Личеров: 3
Статус: (salma3)
Автор

СообщениеДобавлено: 08 июл 2014, 14:41 

Не в сети
Супермодератор
Аватара пользователя
Дата регистрации:
15 фев 2012, 16:44
Возраст: 27
Спасибо: 5139 / 2089
Сообщения: 17411
Новобранцы идут на войну / Les bidasses s'en vont en guerre

Год выпуска: 1974
Жанр: комедия, приключения, военный
Режиссер: Клод Зиди

В ролях: Жан-Ги Фешнер, Жерар Филипелли, Жерар Ринальди, Жан Саррюс, Жак Сейлер, Мариза Мерлини, Хайди Болен, Паоло Стоппа, Мириам Буайе, Бригитте Штайн

Описание: Армия для четырех друзей-балбесов начинается (как и везде) со стрижки. Комик-группа отправляется в армию, где происходят смешные приключения.



Страна: Франция, Италия, Германия (ФРГ)
Продолжительность: 01:24:58
Перевод: Профессиональный (полное дублирование) [к/студия им. Горького СССР]

Файл
Качество: DVD5
Формат файла: DVD Video
Видео кодек: MPEG2
Аудио кодек: AC3
Видео: 720x576i (PAL 16:9), MPEG2 Video, 25 fps, ~ 5 343 Kbps, 0.515 Bits/(Pixel*Frame)
Аудио#1: Русский:48.0 KHz, (AC-3), 2 ch, ~ 256 Kbps avg [полное дублирование]
Аудио#2: Французский:48.0 KHz, (AC-3), 2 ch, ~ 256 Kbps avg [Оригинад]


General
Complete name : G:\Новобранцы идут на войну\VIDEO_TS\VTS_01_1.VOB
Format : MPEG-PS
File size : 1 024 MiB
Duration : 23mn 57s
Overall bit rate mode : Variable
Overall bit rate : 5 974 Kbps

Video
ID : 224 (0xE0)
Format : MPEG Video
Format version : Version 2
Format profile : Main@Main
Format settings, BVOP : Yes
Format settings, Matrix : Custom
Format settings, GOP : M=3, N=12
Duration : 23mn 57s
Bit rate mode : Variable
Bit rate : 5 343 Kbps
Maximum bit rate : 8 000 Kbps
Width : 720 pixels
Height : 576 pixels
Display aspect ratio : 16:9
Frame rate : 25.000 fps
Standard : PAL
Color space : YUV
Chroma subsampling : 4:2:0
Bit depth : 8 bits
Scan type : Interlaced
Scan order : Top Field First
Compression mode : Lossy
Bits/(Pixel*Frame) : 0.515
Time code of first frame : 10:00:00:00
Time code source : Group of pictures header
Stream size : 916 MiB (89%)

Audio #1
ID : 189 (0xBD)-128 (0x80)
Format : AC-3
Format/Info : Audio Coding 3
Mode extension : CM (complete main)
Format settings, Endianness : Big
Muxing mode : DVD-Video
Duration : 23mn 57s
Bit rate mode : Constant
Bit rate : 256 Kbps
Channel(s) : 2 channels
Channel positions : Front: L R
Sampling rate : 48.0 KHz
Bit depth : 16 bits
Compression mode : Lossy
Delay relative to video : -80ms
Stream size : 43.9 MiB (4%)

Audio #2
ID : 189 (0xBD)-129 (0x81)
Format : AC-3
Format/Info : Audio Coding 3
Mode extension : CM (complete main)
Format settings, Endianness : Big
Muxing mode : DVD-Video
Duration : 23mn 57s
Bit rate mode : Constant
Bit rate : 256 Kbps
Channel(s) : 2 channels
Channel positions : Front: L R
Sampling rate : 48.0 KHz
Bit depth : 16 bits
Compression mode : Lossy
Delay relative to video : -80ms
Stream size : 43.9 MiB (4%)

Menu




_________________



реклама партнёра


Вернуться к началу
 Профиль Отправить личное сообщение  
 
   Похожие торренты   Автор   Торрент   Размер 
В этой теме нет новых непрочитанных сообщений. В бой идут одни «старики» (Леонид Быков) [Военный, драма, 1973] DVDRip-AVC

Dracon

209 | 8

1.92 ГБ

В этой теме нет новых непрочитанных сообщений. Шугарлендский экспресс / The Sugarland Express [Криминальная драма, приключения, комедия, 1974] Blu-Ray, Mvo+Sub

salma3

6 | 6

32.87 ГБ

В этой теме нет новых непрочитанных сообщений. Шугарлендский экспресс / The Sugarland Express [драма, комедия, криминал, приключения, 1974] BDRip-AVC, Mvo

salma3

15 | 2

1.45 ГБ

В этой теме нет новых непрочитанных сообщений. Шугарлендский Экспресс / The Sugarland Express [драма, комедия, криминал, приключения, 1974] WEB-DLRip, Mvo

salma3

1 | 2

1.47 ГБ

В этой теме нет новых непрочитанных сообщений. Шугарлендский экспресс / The Sugarland express [драма, комедия, криминал, приключения, 1974] BDRip 720p, Mvo+Sub

salma3

23 | 12

4.9 ГБ

В этой теме нет новых непрочитанных сообщений. Шугарлендский экспресс / The Sugarland Express [драма, комедия, криминал, приключения, 1974] BDRip 1080p, Mvo+Sub

salma3

4 | 4

16.89 ГБ

В этой теме нет новых непрочитанных сообщений. 1911 / Падение последней империи / Xinhai geming [боевик, драма, приключения, военный, история, 2011] DVD5, Mvo+Sub Лицензия

salma3

7 | 2

4.36 ГБ


Начать новую тему Ответить на тему  [ 1 сообщение ] 




Для Мосгорсуда, Роскомнадзора и рекламодателей:: mosgorsud-torrent[собачка]yandex.ru