Торрент файл
скачать торрент магнет ссылка Добавлен: 03 май 2014, 15:23
Размер: 4.36 ГБ
Сидеров: 53
Личеров: 3
Автор

СообщениеДобавлено: 03 май 2014, 15:23 

Не в сети
Зам. Админа
Аватара пользователя
Дата регистрации:
02 дек 2010, 12:39
Спасибо: 12461 / 214
Сообщения: 27968
Год выпуска: 2013
Производство: Великобритания, Германия
Жанр: Спорт, драма, биография
Перевод: Авторский (одноголосый закадровый)
Озвучка / Автор перевода: Ю. Сербин
Субтитры: Вшитые отключаемые
Язык субтитров: Русский, английский

Режиссер: Рон Ховард
Продюсеры: Эндрю Итон, Эрик Феллнер, Брайан Грейзер
Актеры: Крис Хемсворт, Даниэль Брюль, Оливия Уайлд, Александра Мария Лара, Пьерфранческо Фавино, Дэвид Колдер, Натали Дормер, Стефен Мэнгэн, Кристиан МакКэй, Алистэр Петри

Описание фильма:
70-е годы XX века. Золотое время «Формулы-1»: обтекаемые формы гоночных машин, брутальные на треке и ранимые в обычной жизни гонщики, сексуальные поклонницы, литры шампанского на финише для победителя… Два непримиримых соперника в истории гонок — обаятельный плейбой-англичанин Джеймс Хант и дисциплинированный перфекционист-австриец Ники Лауда — доводят себя до предела физической и психологической выносливости ради триумфа на трассе. Для них нет легких путей к победе и права на ошибку. Единственный промах гонщикам может стоить карьеры и даже жизни.


Дата мировой премьеры: 2 сентября 2013
Дата российской премьеры: 17 октября 2013, «Двадцатый Век Фокс СНГ»


Продолжительность: 02:02:34
Качество видео: DVD5
Видео: MPEG-2, 720x480@853x480 (NTSC 16:9), ~4200 Кбит/сек
Аудио 1: AC3 5.1, 448 Кбит/сек [Русский - одноголосый закадровый (Ю. Сербин)]
Аудио 2: AC3 5.1, 448 Кбит/сек [Английский - оригинал]

Title: Локальный диск
Size: 4.36 Gb ( 4 570 176 KBytes ) - DVD-5
Enabled regions: 1, 2, 3, 4, 5, 6, 7, 8

VTS_01 :
Play Length: 02:02:34
Video: NTSC 16:9 (720x480) VBR, Auto Pan&Scan
Audio:
Russian (Dolby AC3, 6 ch)
English (Dolby AC3, 6 ch)
Subtitles:
Russian
English

Menu Video:
NTSC 4:3 (720x480) VBR
Menu English Language Unit :
Root Menu
Общее
Полное имя : D:ВидеоRush (2013) DVD5 [BD - DVD]VIDEO_TSVTS_01_1.VOB
Формат : MPEG-PS
Размер файла : 1000 Мбайт
Продолжительность : 26 м.
Режим общего битрейта : Переменный
Общий поток : 5234 Кбит/сек

Видео
Идентификатор : 224 (0xE0)
Формат : MPEG Video
Версия формата : Version 2
Профиль формата : Main@Main
Параметр BVOP формата : Да
Параметр матрицы формата : Выборочная
Параметр GOP формата : Variable
Продолжительность : 26 м.
Вид битрейта : Переменный
Битрейт : 4234 Кбит/сек
Максимальный битрейт : 8000 Кбит/сек
Ширина : 720 пикселей
Высота : 480 пикселей
Соотношение сторон : 16:9
Частота кадров : 23,976 кадра/сек
Стандарт вещания : NTSC
Цветовое пространство : YUV
Субдискретизация насыщенности : 4:2:0
Битовая глубина : 8 бит
Тип развёртки : Прогрессивная
Порядок развёртки : 2:3 Pulldown
Метод сжатия : С потерями
Бит/(Пиксели*Кадры) : 0.511
Временной код первого кадра : 00:00:00:00
Оригинал временного кода : Group of pictures header
Размер потока : 809 Мбайт (81%)

Аудио #1
Идентификатор : 189 (0xBD)-128 (0x80)
Формат : AC-3
Формат/Информация : Audio Coding 3
Расширение режима : CM (complete main)
Параметр Endianness формата : Big
Режим смешивания : DVD-Video
Продолжительность : 26 м.
Вид битрейта : Постоянный
Битрейт : 448 Кбит/сек
Каналы : 6 каналов
Расположение каналов : Front: L C R, Side: L R, LFE
Частота : 48,0 КГц
Битовая глубина : 16 бит
Метод сжатия : С потерями
Размер потока : 85,6 Мбайт (9%)

Аудио #2
Идентификатор : 189 (0xBD)-129 (0x81)
Формат : AC-3
Формат/Информация : Audio Coding 3
Расширение режима : CM (complete main)
Параметр Endianness формата : Big
Режим смешивания : DVD-Video
Продолжительность : 26 м.
Вид битрейта : Постоянный
Битрейт : 448 Кбит/сек
Каналы : 6 каналов
Расположение каналов : Front: L C R, Side: L R, LFE
Частота : 48,0 КГц
Битовая глубина : 16 бит
Метод сжатия : С потерями
Размер потока : 85,6 Мбайт (9%)

Текст #1
Идентификатор : 189 (0xBD)-32 (0x20)
Формат : RLE
Формат/Информация : Run-length encoding
Режим смешивания : DVD-Video

Текст #2
Идентификатор : 189 (0xBD)-33 (0x21)
Формат : RLE
Формат/Информация : Run-length encoding
Режим смешивания : DVD-Video

Меню

Релиз сделан из ремукса, скаченного в сети. Оттуда же взяты главы, аудиодорожки и субтитры. Меню самодельное. Двд собрано в DVD Lab. Видео сжато Pro Coder в 2 прохода.
Видео
Rhozet Carbon Coder - конвертация видео
AviSynth - обработка видео
DGDecodeNV - индексирование

Программы для разборки/сборки ДВД
PgcDemux - демукс исходного DVD
tsMuxeR - разборка ремукса
MuxMan - сборка видео

Работа со звуком
TranzcodeGUI - извлечение wav
Sonic Foundry Soft Encode - кодирование и сборка ac3 дорожки

Работа с субтитрами
DVDSubEdit - корректировка таймингов и расположения на экране субтитров

Работа с меню и реавторинг
Adobe Photoshop - редактирование меню
DVDReMakePro - реавторинг диска




реклама партнёра


Вернуться к началу
 Профиль  
 
   Похожие торренты   Автор   Торрент   Размер 
В этой теме нет новых непрочитанных сообщений. Гонка / Rush [боевик, драма, биография, спорт, 2013] HDRip, Dub [[Чистый звук]]

salma3

2551 | 179

2.06 ГБ

В этой теме нет новых непрочитанных сообщений. Гонка / Rush [боевик, драма, биография, спорт, 2013] BDRip 1080p, Mvo [iTunes]

Dracon

2 | 1

9.82 ГБ

В этой теме нет новых непрочитанных сообщений. Гонка / Rush [боевик, драма, биография, спорт, 2013] BDRip 720p, Mvo [iTunes]

Dracon

10 | 1

5.34 ГБ

В этой теме нет новых непрочитанных сообщений. Гонка / Rush [боевик, драма, биография, спорт, 2013] Blu-Ray Remux 1080p, dub [Чистый звук]

Dracon

165 | 80

27.99 ГБ

В этой теме нет новых непрочитанных сообщений. Гонка / Rush [Спорт, Драма, Биография, 2013] BDRip 1080p, dub [RED.1.0]

Ανδρέας

48 | 2

8.32 ГБ

В этой теме нет новых непрочитанных сообщений. Гонка / Rush  [Спорт, Драма, Биография, 2013] HDRip, Mvo [iTunes]

Ανδρέας

105 | 1

2.05 ГБ

В этой теме нет новых непрочитанных сообщений. Гонка / Ambushed / Rush [боевик, драма, криминал, 2013] BDRip 720p, dub [Чистый звук]

Dracon

5201 | 421

5.12 ГБ


Начать новую тему Ответить на тему  [ 1 сообщение ] 




Для Мосгорсуда, Роскомнадзора и рекламодателей:: mosgorsud-torrent[собачка]yandex.ru