Торрент файл
скачать торрент магнет ссылка Добавлен: 26 апр 2014, 11:06
Размер: 4.37 ГБ
Сидеров: 176
Личеров: 8
Автор

СообщениеДобавлено: 26 апр 2014, 11:06 

Не в сети
Зам. Админа
Аватара пользователя
Дата регистрации:
02 дек 2010, 12:39
Спасибо: 12650 / 214
Сообщения: 28010
Год выхода: 2013
Жанр: Фэнтези, приключения
Режиссер: Питер Джексон
В ролях: Мартин Фриман, Иэн МакКеллен, Орландо Блум, Эванджелин Лилли, Бенедикт Камбербэтч, Люк Эванс, Элайджа Вуд, Иэн Холм, Кейт Бланшетт, Энди Серкис, Кристофер Ли, Ричард Армитедж, Ли Пейс, Стивен Фрай

О фильме:
Продолжение путешествия хоббита Бильбо Бэггинса, волшебника Гэндальфа и 13 отважных гномов. Их компания обязана завершить своё путешествие к Одинокой горе. Там они должны встретиться с величайшей опасностью из всех — созданием куда более ужасающим, чем все их прошлые противники, которое проверит на прочность не только их мужество, но крепость их дружбы и правильность выбранного пути, — драконом Смаугом.

Качество: DVD5
Видео: MPEG-2, 720x576@1024x576 (PAL 16:9), ~3800 Кбит/сек
Аудио: AC3 5.1, 384 Кбит/сек [Русский]
Продолжительность: 02:41:17
Перевод: Дублированный  [Лицензия]
Субтитры: Английский, эстонский, латышский, литовский, португальский, русский

Общее
Полное имя : D:ВидеоThe Hobbit. The Desolation of Smaug (2013) DVD5VIDEO_TSVTS_01_1.VOB
Формат : MPEG-PS
Размер файла : 1024 Мбайт
Продолжительность : 32 м.
Режим общего битрейта : Переменный
Общий поток : 4349 Кбит/сек

Видео
Идентификатор : 224 (0xE0)
Формат : MPEG Video
Версия формата : Version 2
Профиль формата : Main@Main
Параметр BVOP формата : Да
Параметр матрицы формата : Выборочная
Параметр GOP формата : M=3, N=12
Продолжительность : 32 м.
Вид битрейта : Переменный
Битрейт : 3879 Кбит/сек
Максимальный битрейт : 7593 Кбит/сек
Ширина : 720 пикселей
Высота : 576 пикселей
Соотношение сторон : 16:9
Частота кадров : 25,000 кадров/сек
Стандарт вещания : PAL
Цветовое пространство : YUV
Субдискретизация насыщенности : 4:2:0
Битовая глубина : 8 бит
Тип развёртки : Чересстрочная
Порядок развёртки : Верхнее поле первое
Метод сжатия : С потерями
Бит/(Пиксели*Кадры) : 0.374
Временной код первого кадра : 00:00:00:00
Оригинал временного кода : Group of pictures header
Размер потока : 913 Мбайт (89%)

Аудио
Идентификатор : 189 (0xBD)-129 (0x81)
Формат : AC-3
Формат/Информация : Audio Coding 3
Расширение режима : CM (complete main)
Параметр Endianness формата : Big
Режим смешивания : DVD-Video
Продолжительность : 32 м.
Вид битрейта : Постоянный
Битрейт : 384 Кбит/сек
Каналы : 6 каналов
Расположение каналов : Front: L C R, Side: L R, LFE
Частота : 48,0 КГц
Битовая глубина : 16 бит
Метод сжатия : С потерями
Размер потока : 90,4 Мбайт (9%)

Меню






Вернуться к началу
 Профиль  
 
   Похожие торренты   Автор   Торрент   Размер 
В этой теме нет новых непрочитанных сообщений. Хоббит и шоколадная фабрика / The Hobbit: The Desolation of Smaug (пародия, комедия, юмористический перевод, 2016) HDRip | Смешной перевод

marya111

629 | 22

1.78 ГБ

В этой теме нет новых непрочитанных сообщений. Хоббит: Коллекция / The Hobbit: Collection (Питер Джексон) [2012-2014 , Фэнтези, приключения, экранизация , BluRay 1080p] [DD5.1] [ Subs Rus,Ukr,ENG] [ Лицензия]

marya111

0 | 1

69.09 ГБ

В этой теме нет новых непрочитанных сообщений. Дом / Home (Тим Джонсон) [мультфильм, фантастика, фэнтези, комедия, приключения, семейный, 2015] DVD5, Dub+Sub [Лицензия]

Dracon

3 | 0

4.36 ГБ

В этой теме нет новых непрочитанных сообщений. Хобот: Внезапная ходка взад-назад / The Hobbit: An Unexpected Journey [1-2 часть] (Питер Джексон) [2012, фэнтези, приключения, комедия, смешной перевод, BDRip 1080p | Гоблин] avo

Dracon

1010 | 32

2.89 ГБ

В этой теме нет новых непрочитанных сообщений. Тор: Рагнарёк / Thor: Ragnarok [Фантастика, фэнтези, боевик, 2017] DVD5, Dub [Лицензия]

salma3

0 | 0

4.38 ГБ

В этой теме нет новых непрочитанных сообщений. Чудо-женщина / Wonder Woman [Фантастика, фэнтези, боевик, 2017] DVD5, Dub [Лицензия]

salma3

17 | 5

4.37 ГБ

В этой теме нет новых непрочитанных сообщений. Тайна четырех принцесс (Олег Штром) [Комедия, Фэнтези, 2014] DVD5 [Лицензия]

Dracon

7 | 3

4.35 ГБ


Начать новую тему Ответить на тему  [ 1 сообщение ] 




Для Мосгорсуда, Роскомнадзора и рекламодателей:: mosgorsud-torrent[собачка]yandex.ru
cron