Торрент файл
скачать торрент магнет ссылка Добавлен: 19 апр 2014, 17:35
Размер: 7.77 ГБ
Сидеров: 1
Личеров: 5
Автор

СообщениеДобавлено: 19 апр 2014, 17:35 

Не в сети
Супермодератор
Аватара пользователя
Дата регистрации:
15 фев 2012, 16:44
Возраст: 28
Спасибо: 6563 / 2130
Сообщения: 43556
Год выхода: 1985
Жанр: Комедия
Режиссер: Джон Хьюз

В ролях: Энтони Майкл Холл, Келли ЛеБрок, Илан Митчелл-Смит, Билл Пэкстон, Сюзанн Снайдер, Джуди Аронсон, Роберт Дауни мл., Роберт Раслер, Вернон Уэллс, Бритт Лич, Барбара Лэнг, Майкл Берриман, Айвор Бэрри, Энн Койл, Джон Капелос

О фильме: После просмотра фильма "Франкенштейн" два друга-неудачника Гари и Уайатт вдохновляются идеей создания идеальной девушки, которая бы лишила их девственности, став проводницей в мир чувственных наслаждений. Ребята набивают компьютер обложками от мужских журналов и, поместив туда же фотографию Эйнштейна, запускают программу. Спустя несколько минут в комнату входит созданная ими красавица Лиза. С ее появлением жизнь Гари и Уайатта меняется, но не совсем так, как планировали изобретатели...



Страна: США
Студия: Universal Pictures
Продолжительность: 01:33:33
Перевод: Дублированный, профессиональный многоголосый, профессиональный двухголосый, авторский
Субтитры: Английские, испанские, французские

Файл
Кодек: MPEG-2
Качество: DVD-9
Видео: NTSC 16:9 (720x480) VBR
Звук: Русский (Dolby AC3, 6 ch), английский (DTS, 6 ch), русский (Dolby AC3, 2 ch)

Аудио#1: Английский
Аудио#2: Дублированный
Аудио#3: Профессиональный многоголосый
Аудио#4: Профессиональный двухголосый
Аудио#5: Авторский (Гаврилов)
Title: Локальный диск
Size: 7.77 Gb ( 8 149 114 KBytes ) - DVD-9
Enabled regions: 1, 2, 3, 4, 5, 6, 7, 8

VTS_01 :
Play Length: 01:33:33
Video: NTSC 16:9 (720x480) VBR, Auto Pan&Scan
Audio:
English (DTS, 6 ch)
Russian (Dolby AC3, 2 ch)
Russian (Dolby AC3, 6 ch)
Russian (Dolby AC3, 6 ch)
Russian (Dolby AC3, 2 ch)
Subtitles:
English
Espanol
Francais

VTS_02 :
Play Length: 00:16:40+00:06:08+00:02:11+00:06:02+00:02:34
Video: NTSC 16:9 (720x480) VBR, Auto Pan&Scan
Audio:
English (Dolby AC3, 2 ch)
Subtitles:
English
Espanol
Francais

VTS_03 :
Play Length: 00:22:37
Video: NTSC 4:3 (720x480) VBR
Audio:
Russian (Dolby AC3, 2 ch)
English (Dolby AC3, 2 ch)
Subtitles:
English
Espanol
Francais

VTS_04 :
Play Length: 00:01:34
Video: NTSC 4:3 (720x480) VBR
Audio:
English (Dolby AC3, 2 ch)
Subtitles:
English
Espanol
Francais

VTS_05 :
Play Length: 00:00:24
Video: NTSC 16:9 (720x480) VBR, Auto Pan&Scan
Audio:
English (Dolby AC3, 6 ch)
English (DTS, 6 ch)

VTS_06 :
Play Length: 00:00:20
Video: NTSC 16:9 (720x480) VBR, Auto Pan&Scan
Audio:
English (Dolby AC3, 2 ch)
English (DTS, 6 ch)

VTS_07 :
Play Length: 00:00:14
Video: NTSC 16:9 (720x480) VBR, Auto Pan&Scan
Audio:
English (Dolby AC3, 6 ch)

Menu Video:
NTSC 4:3 (720x480) VBR
Auto Pan&Scan, Auto Letterboxed
Menu English Language Unit :
Root Menu
Subpicture Menu
Audio Menu
Chapter (PTT) Menu
Общее
Полное имя : D:1АААWeird.Science.1985.DVD9VIDEO_TSVTS_01_1.VOB
Формат : MPEG-PS
Размер файла : 1023 Мбайт
Продолжительность : 14 м.
Режим общего битрейта : Переменный
Общий поток : 9610 Кбит/сек

Видео
Идентификатор : 224 (0xE0)
Формат : MPEG Video
Версия формата : Version 2
Профиль формата : Main@Main
Параметр BVOP формата : Да
Параметр матрицы формата : Выборочная
Параметр GOP формата : Variable
Продолжительность : 14 м.
Вид битрейта : Переменный
Битрейт : 7384 Кбит/сек
Максимальный битрейт : 9800 Кбит/сек
Ширина : 720 пикселей
Высота : 480 пикселей
Соотношение сторон : 16:9
Частота кадров : 29,970 кадров/сек
Стандарт вещания : NTSC
Цветовое пространство : YUV
Субдискретизация насыщенности : 4:2:0
Битовая глубина : 8 бит
Метод сжатия : С потерями
Бит/(Пиксели*Кадры) : 0.713
TimeCode_FirstFrame : 00:59:59;00
TimeCode_Source : Group of pictures header
Размер потока : 786 Мбайт (77%)

Аудио #1
Идентификатор : 189 (0xBD)-129 (0x81)
Формат : AC-3
Формат/Информация : Audio Coding 3
Расширение режима : CM (complete main)
Параметр Endianness формата : Big
Режим смешивания : DVD-Video
Продолжительность : 14 м.
Вид битрейта : Постоянный
Битрейт : 192 Кбит/сек
Каналы : 2 канала
Расположение каналов : Front: L R
Частота : 48,0 КГц
Битовая глубина : 16 бит
Метод сжатия : С потерями
Размер потока : 20,4 Мбайт (2%)

Аудио #2
Идентификатор : 189 (0xBD)-130 (0x82)
Формат : AC-3
Формат/Информация : Audio Coding 3
Расширение режима : CM (complete main)
Параметр Endianness формата : Big
Режим смешивания : DVD-Video
Продолжительность : 14 м.
Вид битрейта : Постоянный
Битрейт : 448 Кбит/сек
Каналы : 6 каналов
Расположение каналов : Front: L C R, Side: L R, LFE
Частота : 48,0 КГц
Битовая глубина : 16 бит
Метод сжатия : С потерями
Размер потока : 47,7 Мбайт (5%)

Аудио #3
Идентификатор : 189 (0xBD)-131 (0x83)
Формат : AC-3
Формат/Информация : Audio Coding 3
Расширение режима : CM (complete main)
Параметр Endianness формата : Big
Режим смешивания : DVD-Video
Продолжительность : 14 м.
Вид битрейта : Постоянный
Битрейт : 448 Кбит/сек
Каналы : 6 каналов
Расположение каналов : Front: L C R, Side: L R, LFE
Частота : 48,0 КГц
Битовая глубина : 16 бит
Метод сжатия : С потерями
Размер потока : 47,7 Мбайт (5%)

Аудио #4
Идентификатор : 189 (0xBD)-132 (0x84)
Формат : AC-3
Формат/Информация : Audio Coding 3
Расширение режима : CM (complete main)
Параметр Endianness формата : Big
Режим смешивания : DVD-Video
Продолжительность : 14 м.
Вид битрейта : Постоянный
Битрейт : 192 Кбит/сек
Каналы : 2 канала
Расположение каналов : Front: L R
Частота : 48,0 КГц
Битовая глубина : 16 бит
Метод сжатия : С потерями
Размер потока : 20,4 Мбайт (2%)

Аудио #5
Идентификатор : 189 (0xBD)-136 (0x88)
Формат : DTS
Формат/Информация : Digital Theater Systems
Режим : 16
Параметр Endianness формата : Big
Режим смешивания : DVD-Video
Продолжительность : 14 м.
Вид битрейта : Постоянный
Битрейт : 755 Кбит/сек
Каналы : 6 каналов
Расположение каналов : Front: L C R, Side: L R, LFE
Частота : 48,0 КГц
Битовая глубина : 24 бит
Метод сжатия : С потерями
Размер потока : 80,3 Мбайт (8%)

Текст #1
Идентификатор : 189 (0xBD)-32 (0x20)
Формат : RLE
Формат/Информация : Run-length encoding
Режим смешивания : DVD-Video

Текст #2
Идентификатор : 189 (0xBD)-33 (0x21)
Формат : RLE
Формат/Информация : Run-length encoding
Режим смешивания : DVD-Video

Текст #3
Идентификатор : 189 (0xBD)-34 (0x22)
Формат : RLE
Формат/Информация : Run-length encoding
Режим смешивания : DVD-Video

Меню


_________________
Проголосуй за трекер Открытый торрент трекер - RUS-MEDIA.ORG

Проголосуй Открытый торрент трекер - RUS-MEDIA.ORG



реклама партнёра


Вернуться к началу
 Профиль Отправить личное сообщение  
 
   Похожие торренты   Автор   Торрент   Размер 
В этой теме нет новых непрочитанных сообщений. Вечера науки с Константином Хабенским. Марс / Evenings of science with Konstantin Khabensky. Mars [2014, документальный, HDTVRip]

salma3

0 | 0

572.45 МБ

В этой теме нет новых непрочитанных сообщений. Уличная наука (1-10 серии из 10) / Discovery. Street Science (Discovery Channel) [2017, документальный, наука, тв шоу, HDTVRip] VO

salma3

3 | 2

2.62 ГБ

В этой теме нет новых непрочитанных сообщений. Мой научный проект / My Science Project [фантастика, боевик, комедия, приключения, 1985] BDRip, Mvo

salma3

23 | 4

1.46 ГБ

В этой теме нет новых непрочитанных сообщений. Мой научный проект / My Science Project [фантастика, боевик, комедия, приключения, 1985] BDRip 720p, Mvo

salma3

2 | 1

4.66 ГБ

В этой теме нет новых непрочитанных сообщений. Чудаки-одиночки / Weird Loners [s01] (Джейк Кэздан, Роберт Коэн, Кристин Джернон) [2015, комедия, HDTVRip | Hamster]

Nickolas3435

36 | 3

1.5 ГБ

В этой теме нет новых непрочитанных сообщений. Чудеса на Новый год / Dinner at Fred's [комедия, 1997] DVDRip, Mvo

salma3

81 | 6

1.19 ГБ

В этой теме нет новых непрочитанных сообщений. Чудеса своего рода / Some Kind of Wonderful [драма, мелодрама, комедия, 1987] WEB-DLRip, Avo

salma3

8 | 2

1.45 ГБ


Начать новую тему Ответить на тему  [ 1 сообщение ] 




Для Мосгорсуда, Роскомнадзора и рекламодателей:: mosgorsud-torrent[собачка]yandex.ru