Торрент файл
скачать торрент магнет ссылка Добавлен: 08 апр 2014, 00:29
Размер: 3.87 ГБ
Сидеров: 12
Личеров: 2
Автор

СообщениеДобавлено: 08 апр 2014, 00:29 

В сети
Супермодератор
Аватара пользователя
Дата регистрации:
15 фев 2012, 16:44
Возраст: 27
Спасибо: 5131 / 2089
Сообщения: 17376
Год выхода: 2004
Жанр: Драма, триллер, комедия
Режиссёр: Скотт Зил
В ролях: Керр Смит, Кристина Анапау, Натан Уэзерингтон, Мелисса Ивонн Льюис, Натали Рэмси, Том Паркер, Майкл Пембертон, Тара Кэрролл, Чарли Уэбер, Алекс Доннелли, Уильям Грегори Ли, Аарон МакФерсон, Элизабет МакДоналд

О фильме:
Их любовным интригам нет конца… Их коварный план соблазнить и бросить двух доверчивых студенток не увенчался особым успехом, и тогда Джейсон и Патрик — два самых распущенных студента Колледжа Престридж — обратили свой взгляд на «приз», более интригующий и заманчивый — Касси Мертей, женщину холодную и расчетливую, которая приоткрывает им новый мир наслаждения и боли.



Страна: США
Студия: Columbia Tristar
Продолжительность: 01:25:03
Перевод: Профессиональный многоголосый
Оригинальная аудио-дорожка: Английская

Файл
Кодек: MPEG2
Качество: DVD-5
Видео: MPEG2, NTSC, 720x480 (16:9), 5994 Кбит/с, VBR, 29,970 кадр/с
Аудио #1: Русский, Dolby AC3, 48000 Гц, 384 Кбит/с, 6 каналов (5.1)
Аудио #2: Английский, Dolby AC3, 48000 Гц, 448 Кбит/с, 6 каналов (5.1)
Субтитры: Английские (Colored)



Title: Cruel_Intentions_3
Size: 3.86 Gb ( 4 048 614,00 KBytes ) - DVD-5
Enabled regions: 1, 2, 3, 4, 5, 6, 7, 8

VTS_01 :
Play Length: 01:25:03
Video: NTSC 16:9 (720x480) VBR, Auto Letterboxed
Audio:
Russian (Dolby AC3, 6 ch)
English (Dolby AC3, 6 ch)
Subtitles:
English

VTS_02 :
Play Length: 00:00:14
Video: NTSC 4:3 (720x480) VBR
Audio:
Russian (Dolby AC3, 5 ch)

* Menus Information *

VIDEO_TS Menu
Video:
NTSC 4:3 (720x480) VBR
Audio:
Not specified (Dolby AC3, 6 ch)
Russian Language Unit :
Title Menu

VTS_01 Menu
Video:
NTSC 4:3 (720x480) VBR
Russian Language Unit :
Root Menu
Audio Menu
Chapter (PTT) Menu

VTS_02 Menu
Video:
NTSC 4:3 (720x480) VBR
Russian Language Unit :
Root Menu
Общее
Полное имя : VTS_01_1.VOB
Формат : MPEG-PS
Размер файла : 1024 Мбайт
Продолжительность : 20 м.
Режим общего битрейта : Переменный
Общий поток : 6965 Кбит/сек

Видео
Идентификатор : 224 (0xE0)
Формат : MPEG Video
Версия формата : Version 2
Профиль формата : Main@Main
Параметр BVOP формата : Да
Параметр матрицы формата : Выборочная
Параметр GOP формата : Variable
Продолжительность : 20 м.
Вид битрейта : Переменный
Битрейт : 5994 Кбит/сек
Максимальный битрейт : 9800 Кбит/сек
Ширина : 720 пикселей
Высота : 480 пикселей
Соотношение сторон : 16:9
Частота кадров : 29,970 кадров/сек
Стандарт вещания : NTSC
Цветовое пространство : YUV
Субдискретизация насыщенности : 4:2:0
Битовая глубина : 8 бит
Метод сжатия : С потерями
Бит/(Пиксели*Кадры) : 0.579
Размер потока : 881 Мбайт (86%)

Аудио #1
Идентификатор : 189 (0xBD)-128 (0x80)
Формат : AC-3
Формат/Информация : Audio Coding 3
Расширение режима : CM (complete main)
Параметр Endianness формата : Big
Режим смешивания : DVD-Video
Продолжительность : 20 м.
Вид битрейта : Постоянный
Битрейт : 384 Кбит/сек
Каналы : 6 каналов
Расположение каналов : Front: L C R, Side: L R, LFE
Частота : 48,0 КГц
Битовая глубина : 16 бит
Метод сжатия : С потерями
Размер потока : 56,4 Мбайт (6%)

Аудио #2
Идентификатор : 189 (0xBD)-129 (0x81)
Формат : AC-3
Формат/Информация : Audio Coding 3
Расширение режима : CM (complete main)
Параметр Endianness формата : Big
Режим смешивания : DVD-Video
Продолжительность : 20 м.
Вид битрейта : Постоянный
Битрейт : 448 Кбит/сек
Каналы : 6 каналов
Расположение каналов : Front: L C R, Side: L R, LFE
Частота : 48,0 КГц
Битовая глубина : 16 бит
Метод сжатия : С потерями
Размер потока : 65,8 Мбайт (6%)

Текст #1
Идентификатор : 224 (0xE0)-CC3
Формат : EIA-608
Режим смешивания, доп. информация : Muxed in Video #1
Вид битрейта : Постоянный
Размер потока : 0,00 байт (0%)

Текст #2
Идентификатор : 189 (0xBD)-32 (0x20)
Формат : RLE
Формат/Информация : Run-length encoding
Режим смешивания : DVD-Video

Меню



_________________



реклама партнёра


Вернуться к началу
 Профиль Отправить личное сообщение  
 
   Похожие торренты   Автор   Торрент   Размер 
В этой теме нет новых непрочитанных сообщений. Жестокие игры 3 / Cruel Intentions 3 [Драма, триллер, комедия, 2004] DVDRip, Mvo

salma3

138 | 12

1.47 ГБ

В этой теме нет новых непрочитанных сообщений. Жестокие игры / Cruel Intentions [триллер, драма, мелодрама, 1999] BDRip, Mvo [Видеосервис]

salma3

60 | 10

1.46 ГБ

В этой теме нет новых непрочитанных сообщений. Игры джентльменов / The Ladykillers [триллер, комедия, криминал, 2004] WEB-DLRip-AVC, Dub

salma3

211 | 23

1.45 ГБ

В этой теме нет новых непрочитанных сообщений. Жестокие люди / Fierce People (Гриффин Данн / Griffin Dunne) [2005г., драма, триллер, экранизация, WEB-DLRip-AVC] DUB+DVO

Alfredovich

27 | 2

2.7 ГБ

В этой теме нет новых непрочитанных сообщений. Правила игры (Холостяцкие игры) / Bachelor Games [ужасы, боевик, триллер, комедия, приключения, 2016] HDRip, Avo

salma3

199 | 9

1.28 ГБ

В этой теме нет новых непрочитанных сообщений. Жестокое Завещание / Cruel Will [ужасы, триллер, 2013] WEB-DLRip, Dvo

salma3

246 | 11

1.37 ГБ

В этой теме нет новых непрочитанных сообщений. Военные игры / War Games: At the End of the Day [Триллер, боевик, ужасы, 2011] DVD5, Mvo

salma3

15 | 11

4.35 ГБ


Начать новую тему Ответить на тему  [ 1 сообщение ] 




Для Мосгорсуда, Роскомнадзора и рекламодателей:: mosgorsud-torrent[собачка]yandex.ru