Торрент файл
скачать торрент магнет ссылка Добавлен: 06 апр 2014, 00:38
Размер: 4.11 ГБ
Сидеров: 5
Личеров: 3
Автор

СообщениеДобавлено: 06 апр 2014, 00:38 

Не в сети
Супермодератор
Аватара пользователя
Дата регистрации:
15 фев 2012, 16:44
Возраст: 27
Спасибо: 5143 / 2090
Сообщения: 17478
Год выхода: 2004
Жанр: Боевик, комедия, приключения
Режиссёр: Майкл Койш

В ролях: Люк Уилкинс, Александра Нельдель, Генриетта Рихтер-Роль, Нильс-Бруно Шмидт, Мануэль Кортез

О фильме:
Компанию сорвиголов на навороченных машинах объединяет одна страсть: гонки без ограничений скорости. Парням регулярно «обламывает кайф» полиция, принимая их за угонщиков дорогих спортивных автомобилей. А все попытки поймать воров приводят к одному и тому же результату: груда покорёженных полицейских машин и «растворившиеся в воздухе» преступники. Инспектор полиции Карл получает задание внедриться в тусовку гонщиков. Он становится в ней своим и даже добивается взаимности от красотки Ники, пилотирующей быстрый, как молния «БМВ М3». Но угонщики наносят новый удар, похитив «Феррари», «Мазерати» и «Ламборгини» - «миллион долларов на колёсах». Повсюду полицейские. Ни о каких гонках не может быть и речи. И тогда Карл предлагает план: чтобы беспрепятственно гонять по трассе, они сами должны поймать угонщиков…



Страна: Германия, Люксембург
Студия: Constantin Film Produktion GmbH
Продолжительность: 01:24:15
Перевод: Профессиональный многоголосый
Оригинальная аудио-дорожка: Немецкая

Файл
Кодек: MPEG2
Качество: DVD-5
Видео: MPEG2, PAL, 720x576 (16:9), 25 кадр/с, 5118 Кбит/с, VBR
Аудио #1: Русский, Dolby AC3, 48000 Гц, 448 Кбит/с, 6 каналов (5.1)
Аудио #2: Немецкий, Dolby AC3, 48000 Гц, 448 Кбит/с, 6 каналов (5.1)
Субтитры: Русские, немецкие
Меню: Анимированное, озвученное



Киножурнал, анонсы, трейлер
Title: Турбо форсаж
Size: 4.11 Gb ( 4 312 200,00 KBytes ) - DVD-5
Enabled regions: 1, 2, 3, 4, 5, 6, 7, 8

VTS_01 :
Play Length: 00:00:35+00:00:23+00:00:30+00:00:29
Video: PAL 4:3 (720x576) VBR
Audio:
Not specified (Dolby AC3, 2 ch)

VTS_02 :
Play Length: 01:24:14
Video: PAL 16:9 (720x576) VBR, Auto Letterboxed
Audio:
Russian (Dolby AC3, 6 ch)
Deutsch (Dolby AC3, 6 ch)
Subtitles:
Russian
Deutsch

* Menus Information *

VIDEO_TS Menu
Video:
PAL 4:3 (720x576) VBR
Audio:
Not specified (Dolby AC3, 6 ch)
English Language Unit :
Title Menu

VTS_01 Menu
Video:
NTSC 4:3 (720x480) VBR
Auto Pan&Scan, Auto Letterboxed
Language Unit :
Subpicture Menu
Angle menu
Language Unit :
Subpicture Menu
Angle menu
Language Unit :
Subpicture Menu
Angle menu
Language Unit :
Subpicture Menu
Angle menu
Language Unit :
Subpicture Menu
Angle menu

VTS_02 Menu
Video:
PAL 16:9 (720x576) VBR
Auto Letterboxed
Audio:
Not specified (Dolby AC3, 2 ch)
English Language Unit :
Root Menu
Subpicture Menu
Audio Menu
Angle menu
Chapter (PTT) Menu
Общее
Полное имя : VTS_02_1.VOB
Формат : MPEG-PS
Размер файла : 1024 Мбайт
Продолжительность : 23 м.
Режим общего битрейта : Переменный
Общий поток : 6136 Кбит/сек

Видео
Идентификатор : 224 (0xE0)
Формат : MPEG Video
Версия формата : Version 2
Профиль формата : Main@Main
Параметр BVOP формата : Да
Параметр матрицы формата : Выборочная
Параметр GOP формата : Variable
Продолжительность : 23 м.
Вид битрейта : Переменный
Битрейт : 5118 Кбит/сек
Максимальный битрейт : 8200 Кбит/сек
Ширина : 720 пикселей
Высота : 576 пикселей
Соотношение сторон : 16:9
Частота кадров : 25,000 кадров/сек
Стандарт вещания : PAL
Цветовое пространство : YUV
Субдискретизация насыщенности : 4:2:0
Битовая глубина : 8 бит
Тип развёртки : Чересстрочная
Порядок развёртки : Верхнее поле первое
Метод сжатия : С потерями
Бит/(Пиксели*Кадры) : 0.494
Временной код первого кадра : 00:00:00:00
Оригинал временного кода : Group of pictures header
Размер потока : 854 Мбайт (83%)

Аудио #1
Идентификатор : 189 (0xBD)-128 (0x80)
Формат : AC-3
Формат/Информация : Audio Coding 3
Расширение режима : CM (complete main)
Параметр Endianness формата : Big
Режим смешивания : DVD-Video
Продолжительность : 23 м.
Вид битрейта : Постоянный
Битрейт : 448 Кбит/сек
Каналы : 6 каналов
Расположение каналов : Front: L C R, Side: L R, LFE
Частота : 48,0 КГц
Битовая глубина : 16 бит
Метод сжатия : С потерями
Размер потока : 74,7 Мбайт (7%)

Аудио #2
Идентификатор : 189 (0xBD)-129 (0x81)
Формат : AC-3
Формат/Информация : Audio Coding 3
Расширение режима : CM (complete main)
Параметр Endianness формата : Big
Режим смешивания : DVD-Video
Продолжительность : 23 м.
Вид битрейта : Постоянный
Битрейт : 448 Кбит/сек
Каналы : 6 каналов
Расположение каналов : Front: L C R, Side: L R, LFE
Частота : 48,0 КГц
Битовая глубина : 16 бит
Метод сжатия : С потерями
Размер потока : 74,7 Мбайт (7%)

Текст
Идентификатор : 189 (0xBD)-32 (0x20)
Формат : RLE
Формат/Информация : Run-length encoding
Режим смешивания : DVD-Video

Меню



_________________



реклама партнёра


Вернуться к началу
 Профиль Отправить личное сообщение  
 
   Похожие торренты   Автор   Торрент   Размер 
В этой теме нет новых непрочитанных сообщений. Турбофорсаж / Autobahn Racer [Боевик, комедия, приключения, 2004] DVDRip, Mvo

salma3

36 | 5

701.71 МБ

В этой теме нет новых непрочитанных сообщений. Турбофорсаж / Autobahn Racer [Боевик, комедия, приключения, 2004] DVDRip, Mvo

salma3

285 | 27

1.46 ГБ

В этой теме нет новых непрочитанных сообщений. Boxcar Racer - Boxcar Racer [2002, Alternative Rock, Punk, MP3]

PriZraK

0 | 1

54.63 МБ

В этой теме нет новых непрочитанных сообщений. Кольцо дракона / George and the Dragon [Фэнтези, боевик, мелодрама, комедия, приключения, 2004] DVD-5, Mvo+Sub

salma3

0 | 4

4.3 ГБ

В этой теме нет новых непрочитанных сообщений. Бюро убийств / The Assassination Bureau [боевик, триллер, комедия, криминал, приключения, 1969] DVD5, Mvo

salma3

0 | 3

4.36 ГБ

В этой теме нет новых непрочитанных сообщений. Из 13 в 30 / 13 Going on 30 [Комедия, мелодрама, 2004] DVD5, Mvo

salma3

7 | 0

4.33 ГБ

В этой теме нет новых непрочитанных сообщений. Коробка / Le carton [комедия, 2004] DVD5, Dub [Лицензия]

salma3

9 | 4

3.51 ГБ


Начать новую тему Ответить на тему  [ 1 сообщение ] 




Для Мосгорсуда, Роскомнадзора и рекламодателей:: mosgorsud-torrent[собачка]yandex.ru