Торрент файл
скачать торрент магнет ссылка Добавлен: 03 мар 2014, 14:00
Размер: 4.36 ГБ
Сидеров: 9
Личеров: 4
Автор

СообщениеДобавлено: 03 мар 2014, 14:00 

Не в сети
Супермодератор
Аватара пользователя
Дата регистрации:
15 фев 2012, 16:44
Возраст: 28
Спасибо: 6493 / 2129
Сообщения: 41277
Год выхода: 2013
Жанр: ужасы, триллер, детектив
Режиссер: Винченцо Натали
В ролях: Эбигейл Бреслин, Питер Аутербридж, Мишель Нолден, Стивен МакХэтти, Питер ДаКуна, Элинор Зичи, Дэвид Нолл, Саманта Вайнштейн, Дэвид Хьюлетт, Сара Мэннинен

О фильме:
На первый взгляд, Лиза с её младшим братом и родителями — совершенно обыкновенная семья, ведущая спокойную, размеренную жизнь. Но никто, кроме девочки, не подозревает, что они проживают один и тот же день уже не в первый раз…


Страна: Канада, Франция
Студия: Copper Heart Entertainment
Продолжительность: 97 мин. / 01:37
Перевод: полное дублирование

Файл
Кодек: MPEG2
Качество: DVD5
Видео: PAL 16:9 (720x576) VBR 5678 Kbps, 25.000 fps
Звук: Dolby AC3, 6 ch, 48.0 KHz, 448 Kbps
Субтитры: отсутствуют
Оригинальная дорожка: отсутствует
Бонусы: Смотрите на DVD; Создатели и исполнители

General
Complete name : E:LimbVIDEO_TSVTS_04_1.VOB
Format : MPEG-PS
File size : 1 024 MiB
Duration : 22mn 54s
Overall bit rate mode : Variable
Overall bit rate : 6 250 Kbps

Video
ID : 224 (0xE0)
Format : MPEG Video
Format version : Version 2
Format profile : Main@Main
Format settings, BVOP : No
Format settings, Matrix : Default
Format settings, GOP : M=3, N=12
Duration : 22mn 54s
Bit rate mode : Variable
Bit rate : 5 678 Kbps
Maximum bit rate : 8 000 Kbps
Width : 720 pixels
Height : 576 pixels
Display aspect ratio : 16:9
Frame rate : 25.000 fps
Standard : PAL
Color space : YUV
Chroma subsampling : 4:2:0
Bit depth : 8 bits
Scan type : Progressive
Compression mode : Lossy
Bits/(Pixel*Frame) : 0.548
Time code of first frame : 00:00:00:00
Time code source : Group of pictures header
Stream size : 930 MiB (91%)

Audio
ID : 189 (0xBD)-128 (0x80)
Format : AC-3
Format/Info : Audio Coding 3
Mode extension : CM (complete main)
Format settings, Endianness : Big
Muxing mode : DVD-Video
Duration : 22mn 54s
Bit rate mode : Constant
Bit rate : 448 Kbps
Channel(s) : 6 channels
Channel positions : Front: L C R, Side: L R, LFE
Sampling rate : 48.0 KHz
Bit depth : 16 bits
Compression mode : Lossy
Stream size : 73.4 MiB (7%)

Menu


_________________
Проголосуй за трекер Открытый торрент трекер - RUS-MEDIA.ORG

Проголосуй Открытый торрент трекер - RUS-MEDIA.ORG



реклама партнёра


Вернуться к началу
 Профиль Отправить личное сообщение  
 
   Похожие торренты   Автор   Торрент   Размер 
В этой теме нет новых непрочитанных сообщений. Байки из склепа / Tales from the Crypt [ужасы, фэнтези, триллер, комедия, криминал, детектив, 1989] DVD5, Avo

salma3

1 | 3

4.18 ГБ

В этой теме нет новых непрочитанных сообщений. Гнев вороны / Wrath of the Crows (Айван Зуккон) [2013, Ужасы, триллер, детектив, DVDRip-AVC] avo

Dracon

138 | 10

946.06 МБ

В этой теме нет новых непрочитанных сообщений. Проклятое место  / Lost Place (Торстен Клайн) [ужасы, триллер, детектив, 2013] HDRip, Mvo

Dracon

2 | 4

1.37 ГБ

В этой теме нет новых непрочитанных сообщений. Техасская резня бензопилой / Texas Chainsaw [ужасы, триллер, детектив, 2013] HDRip, Dub [лицензия]

Dracon

5 | 4

1.37 ГБ

В этой теме нет новых непрочитанных сообщений. Логово зверя / Прибежище / Haunt (Мак Картер) [ужасы,Триллер, детектив, 2013] HDRip, Dub [iTunes Russia]

Dracon

11 | 2

1.37 ГБ

В этой теме нет новых непрочитанных сообщений. Галлоуз Хилл / Gallows Hill / The Damned (Виктор Гарсия) [ужасы, триллер, детектив, 2013] BDRip 1080p, dub [Чистый звук]

Dracon

40 | 4

5.82 ГБ

В этой теме нет новых непрочитанных сообщений. Хемлок Гроув / Hemlock Grove [S01-03] (Деран Сарафьян, Т.Дж. Скотт) [2013-2015, Детектив, Триллер, Ужасы, Фантастика, WEBRip 720p | NewStudio]

Dracon

37 | 115

54.17 ГБ


Начать новую тему Ответить на тему  [ 1 сообщение ] 




Для Мосгорсуда, Роскомнадзора и рекламодателей:: mosgorsud-torrent[собачка]yandex.ru