Торрент файл
скачать торрент магнет ссылка Добавлен: 13 дек 2013, 11:36
Размер: 4.34 ГБ
Сидеров: 0
Личеров: 2
Статус: (Dracon)
Автор

СообщениеДобавлено: 13 дек 2013, 11:36 

Не в сети
Зам. Админа
Аватара пользователя
Дата регистрации:
02 дек 2010, 12:39
Спасибо: 12588 / 214
Сообщения: 28049
Год выхода: 2013
Жанр: Боевик,Комедия,Криминал
Режиссер: Бальтасар Кормакур
В ролях: Дензел Вашингтон, Марк Уолберг, Пола Пэттон, Билл Пэкстон, Фред Уорд, Джеймс Марсден, Роберт Джон Бёрк, Фред Уорд, Патрик Фишлер, Лаки Джонсон

О фильме:
Это история двух грабителей, которые на самом деле не те, кем кажутся. Один из них — агент из управления по борьбе с наркотиками, а другой — тайный агент разведки ВМС. Сами того не желая, они занимаются расследованием дел друг друга, а также воруют деньги у мафии. Через некоторое время героям придется украсть 50 миллионов долларов у ЦРУ.

Качество: DVD5
Видео: MPEG2 Video ,720x480 ,(16:9) ,29.97fps,4 348 Kbps
Аудио:#1 Русский - Dolby AC3,6ch,448bps,48000Hz
Аудио:#2 Английский - Dolby AC3,6ch,448bps,48000Hz
Субтитры: - английские
Продолжительность: 01:49:08
Перевод: Авторский  (Ю. Сербин)

General
Complete name                  : E:Раздачи X-torrent (ноябрь)2 Ствола  DVD5(2013)VIDEO_TSVTS_01_2.VOB
Format                         : MPEG-PS
File size                      : 1 000 MiB
Duration                       : 26mn 7s
Overall bit rate mode          : Variable
Overall bit rate               : 5 351 Kbps

Video
ID                             : 224 (0xE0)
Format                         : MPEG Video
Format version                 : Version 2
Format profile                 : Main@Main
Format settings, BVOP          : Yes
Format settings, Matrix        : Custom
Duration                       : 26mn 7s
Bit rate mode                  : Variable
Bit rate                       : 4 348 Kbps
Maximum bit rate               : 8 000 Kbps
Width                          : 720 pixels
Height                         : 480 pixels
Display aspect ratio           : 16:9
Frame rate                     : 23.976 fps
Standard                       : NTSC
Color space                    : YUV
Chroma subsampling             : 4:2:0
Bit depth                      : 8 bits
Scan type                      : Progressive
Scan order                     : 2:3 Pulldown
Compression mode               : Lossy
Bits/(Pixel*Frame)             : 0.525
Stream size                    : 812 MiB (81%)

Audio #1
ID                             : 189 (0xBD)-128 (0x80)
Format                         : AC-3
Format/Info                    : Audio Coding 3
Mode extension                 : CM (complete main)
Muxing mode                    : DVD-Video
Duration                       : 26mn 7s
Bit rate mode                  : Constant
Bit rate                       : 448 Kbps
Channel(s)                     : 6 channels
Channel positions              : Front: L C R, Side: L R, LFE
Sampling rate                  : 48.0 KHz
Bit depth                      : 16 bits
Compression mode               : Lossy
Delay relative to video        : -273ms
Stream size                    : 83.7 MiB (8%)

Audio #2
ID                             : 189 (0xBD)-129 (0x81)
Format                         : AC-3
Format/Info                    : Audio Coding 3
Mode extension                 : CM (complete main)
Muxing mode                    : DVD-Video
Duration                       : 26mn 7s
Bit rate mode                  : Constant
Bit rate                       : 448 Kbps
Channel(s)                     : 6 channels
Channel positions              : Front: L C R, Side: L R, LFE
Sampling rate                  : 48.0 KHz
Bit depth                      : 16 bits
Compression mode               : Lossy
Delay relative to video        : -273ms
Stream size                    : 83.7 MiB (8%)

Text
ID                             : 189 (0xBD)-32 (0x20)
Format                         : RLE
Format/Info                    : Run-length encoding
Muxing mode                    : DVD-Video
Duration                       : 26mn 2s
Delay relative to video        : 4s 254ms

Menu














реклама партнёра


Вернуться к началу
 Профиль  
 
   Похожие торренты   Автор   Торрент   Размер 
В этой теме нет новых непрочитанных сообщений. Два ствола / 2 Guns [боевик, триллер, драма, комедия, 2013] BDRip, Avo+Sub [Гаврилов]

salma3

113 | 8

1.45 ГБ

В этой теме нет новых непрочитанных сообщений. Конец ствола / End of a Gun [боевик, триллер, 2016] HDRip, Mvo

salma3

342 | 45

699.76 МБ

В этой теме нет новых непрочитанных сообщений. Конец ствола / End of a Gun [боевик, триллер, 2016] HDRip, Mvo

salma3

2709 | 375

1.37 ГБ

В этой теме нет новых непрочитанных сообщений. Конец ствола / End of a Gun [боевик, триллер, 2016] BDRip 1080p, Mvo

salma3

427 | 132

6.05 ГБ

В этой теме нет новых непрочитанных сообщений. Конец ствола / End of a Gun [боевик, триллер, 2016] BDRip 720p, Mvo

salma3

876 | 268

3.23 ГБ

В этой теме нет новых непрочитанных сообщений. Guns N’ Roses - Roses N’ Guns [2013, Hard Rock, Glam Rock, Heavy Metal, MP3]

PriZraK

9 | 1

114.58 МБ

В этой теме нет новых непрочитанных сообщений. Крутые стволы / Mean Guns [боевик, триллер, криминал, 1997] BDRip 1080p, Mvo+Sub

salma3

43 | 8

12.33 ГБ


Начать новую тему Ответить на тему  [ 1 сообщение ] 




Для Мосгорсуда, Роскомнадзора и рекламодателей:: mosgorsud-torrent[собачка]yandex.ru