Торрент файл
скачать торрент магнет ссылка Добавлен: 11 дек 2013, 20:18
Размер: 4.36 ГБ
Сидеров: 1
Личеров: 3
Статус: (Dracon)
Автор

СообщениеДобавлено: 11 дек 2013, 20:18 

Не в сети
Зам. Админа
Аватара пользователя
Дата регистрации:
02 дек 2010, 12:39
Спасибо: 12598 / 214
Сообщения: 28049
Год выхода: 2012
Жанр: Фэнтези, комедия
Режиссер: Сет МакФарлейн
В ролях: Марк Уолберг, Мила Кунис, Сет МакФарлейн, Джоэль МакХэйл, Джованни Рибизи, Патрик Варбертон, Мэтт Уолш, Джессика Барт, Аэдин Минкс, Билл Смитрович

О фильме:
Джон влюблен в красавицу Лори, у него отличная работа и большие планы на будущее. Но в их отношения вмешивается третий, давний друг Джона — Тед. Он отрывается сутки напролет, предпочитает случайные связи и не желает терять друга. Но никто на самом деле не знает на что он способен, ведь Тед — большой плюшевый медведь.



Качество: DVD5
Видео: PAL 16:9, 720x576, 25 fps, 4123 Kbps
Аудио 1: (Dolby AC3, 6 ch), 384 Kbps, 48 kHz [Английский]
Аудио 2: (Dolby AC3, 6 ch), 384 Kbps, 48 kHz [Русский]
Субтитры: Русский, Английский (SDH), Арабский, Болгарский, Литовский
Продолжительность: 01:41:43
Перевод: Дублированный [Лицензия]

Семпл

General
Complete name                            : E:Tretiy.lishniy.2012.D.DVD5VIDEO_TSVTS_09_4.VOB
Format                                   : MPEG-PS
File size                                : 679 MiB
Duration                                 : 18mn 24s
Overall bit rate mode                    : Variable
Overall bit rate                         : 5 162 Kbps

Video
ID                                       : 224 (0xE0)
Format                                   : MPEG Video
Format version                           : Version 2
Format profile                           : Main@Main
Format settings, BVOP                    : Yes
Format settings, Matrix                  : Custom
Duration                                 : 18mn 23s
Bit rate mode                            : Variable
Bit rate                                 : 4 291 Kbps
Maximum bit rate                         : 9 800 Kbps
Width                                    : 720 pixels
Height                                   : 576 pixels
Display aspect ratio                     : 16:9
Frame rate                               : 25.000 fps
Standard                                 : Component
Color space                              : YUV
Chroma subsampling                       : 4:2:0
Bit depth                                : 8 bits
Scan type                                : Interlaced
Scan order                               : Top Field First
Compression mode                         : Lossy
Bits/(Pixel*Frame)                       : 0.414
Stream size                              : 565 MiB (83%)
Color primaries                          : BT.470-2 System B, BT.470-2 System G
Transfer characteristics                 : BT.470-2 System B, BT.470-2 System G
Matrix coefficients                      : BT.470-2 System B, BT.470-2 System G

Audio #1
ID                                       : 189 (0xBD)-128 (0x80)
Format                                   : AC-3
Format/Info                              : Audio Coding 3
Mode extension                           : CM (complete main)
Format settings, Endianness              : Big
Muxing mode                              : DVD-Video
Duration                                 : 18mn 24s
Bit rate mode                            : Constant
Bit rate                                 : 384 Kbps
Channel(s)                               : 6 channels
Channel positions                        : Front: L C R, Side: L R, LFE
Sampling rate                            : 48.0 KHz
Bit depth                                : 16 bits
Compression mode                         : Lossy
Delay relative to video                  : -592ms
Stream size                              : 50.5 MiB (7%)

Audio #2
ID                                       : 189 (0xBD)-130 (0x82)
Format                                   : AC-3
Format/Info                              : Audio Coding 3
Mode extension                           : CM (complete main)
Format settings, Endianness              : Big
Muxing mode                              : DVD-Video
Duration                                 : 18mn 24s
Bit rate mode                            : Constant
Bit rate                                 : 384 Kbps
Channel(s)                               : 6 channels
Channel positions                        : Front: L C R, Side: L R, LFE
Sampling rate                            : 48.0 KHz
Bit depth                                : 16 bits
Compression mode                         : Lossy
Delay relative to video                  : -592ms
Stream size                              : 50.5 MiB (7%)

Text #1
ID                                       : 189 (0xBD)-32 (0x20)
Format                                   : RLE
Format/Info                              : Run-length encoding
Muxing mode                              : DVD-Video
Delay relative to video                  : 5s 80ms

Text #2
ID                                       : 189 (0xBD)-33 (0x21)
Format                                   : RLE
Format/Info                              : Run-length encoding
Muxing mode                              : DVD-Video
Duration                                 : 18mn 14s
Delay relative to video                  : 5s 80ms

Text #3
ID                                       : 189 (0xBD)-34 (0x22)
Format                                   : RLE
Format/Info                              : Run-length encoding
Muxing mode                              : DVD-Video
Duration                                 : 18mn 14s
Delay relative to video                  : 5s 80ms

Text #4
ID                                       : 189 (0xBD)-39 (0x27)
Format                                   : RLE
Format/Info                              : Run-length encoding
Muxing mode                              : DVD-Video

Menu












реклама партнёра


Вернуться к началу
 Профиль  
 
   Похожие торренты   Автор   Торрент   Размер 
В этой теме нет новых непрочитанных сообщений. Третий лишний / Ted [фэнтези, комедия, 2012] BDRip 720p, Dub [iPad] [Лицензия]

salma3

16 | 10

2.67 ГБ

В этой теме нет новых непрочитанных сообщений. Третий лишний 2 / Ted 2 (Сет МакФарлейн) [комедия, 2015] WEB-DLRip, Dub [iTunes]

slawa4155

43 | 2

2.05 ГБ

В этой теме нет новых непрочитанных сообщений. Третий лишний / The Third Wheel [мелодрама, комедия, 2002] WEB-DLRip, Dvo

salma3

37 | 8

1.45 ГБ

В этой теме нет новых непрочитанных сообщений. Третий лишний 2 / Ted 2 (Сет МакФарлейн) [комедия, 2015] WEB-DL 1080p, Dub [iTunes]

Dracon

97 | 6

3.83 ГБ

В этой теме нет новых непрочитанных сообщений. Третий лишний 2  / Ted 2 (Сет МакФарлейн) [комедия, 2015] WEB-DL 720p, Dub [iTunes]

Dracon

374 | 40

3.51 ГБ

В этой теме нет новых непрочитанных сообщений. Третий лишний 2 / Ted 2 [комедия, 2015] HDTV 1080p, Dub [Трейлер]

salma3

1012 | 20

129.37 МБ

В этой теме нет новых непрочитанных сообщений. Третий лишний 2  / Ted 2 (Сет МакФарлейн) [комедия, 2015] BDRip, Dub [iTunes]

Dracon

23 | 7

1.47 ГБ


Начать новую тему Ответить на тему  [ 1 сообщение ] 




Для Мосгорсуда, Роскомнадзора и рекламодателей:: mosgorsud-torrent[собачка]yandex.ru