Торрент файл
скачать торрент магнет ссылка Добавлен: 19 ноя 2013, 01:19
Размер: 4.36 ГБ
Сидеров: 10
Личеров: 3
Статус: (salma3)
Автор

СообщениеДобавлено: 19 ноя 2013, 01:19 

Не в сети
Супермодератор
Аватара пользователя
Дата регистрации:
15 фев 2012, 16:44
Возраст: 27
Спасибо: 5121 / 2089
Сообщения: 17296
Страна: США
Жанр: триллер, криминал, комедия
Год выпуска: 2011
Продолжительность: 01:29:21
Перевод: Профессиональный (дублированный)
Cубтитры: нет
Оригинальная аудиодорожка: английский


Режиссер: Майкл Уинник / Michael Winnick

В ролях: Кристиан Слэйтер, Меган Парк, Хелена Мэттссон, Пауэрс Бут, Гордон Тутусис, Гари Олдман, Мэттью Уиллиг, Дейн Кук, Сэм Трэммелл, Джефф Фэйи


Описание: Джону Смиту не очень-то везло в последнее время, но он верил в народную мудрость, что жизнь — это тельняшка, и за черной полосой обязательно последует белая. Однако на этот раз мудрость не сработала. Джон Смит оказался в плохое время в плохом месте. Из казино, где он пытался поправить свое финансовое положение, во время игры в покер украли бесценный индейский артефакт. Как гласит предание, эта священная маска легендарного воина племени сиу способна подарить своему обладателю удачу и бессмертие. Охотников за счастьем подсобралось немало, и все они стопроцентно уверены, что вор — Джон Смит. Разношерстная компания — двойники Элвиса Пресли, индейцы, ковбои, блондинка-киллерша, коррумпированные полицейские, проститутка и даже злобный карлик — бросается за ним в погоню…


Качество видео: DVD5 (custom)
Формат видео: DVD Video
Меню: Нет
Видео: NTSC (16:9), 720x480, VBR 6000 kbps
Аудио 1: AC3, 48000 Hz, 384 kbps, 5.1 channels - Dub
Аудио 2: AC3, 48000 Hz, 448 kbps, 5.1 channels - Eng



Title: Guns Girls and Gambling (2011) DVD5
Size: 4.36 Gb ( 4 571 240,00 KBytes ) - DVD-5
Enabled regions: 1, 2, 3, 4, 5, 6, 7, 8

VTS_01 :
Play Length: 01:29:21
Video: NTSC 16:9 (720x480) VBR, Auto Letterboxed
Audio:
Russian (Dolby AC3, 6 ch)
English (Dolby AC3, 6 ch)

* Menus Information *

VIDEO_TS Menu
Video:
NTSC 4:3 (720x480) VBR
Auto Pan&Scan, Auto Letterboxed
Language Unit :
Title Menu

VTS_01 Menu
Video:
NTSC 4:3 (720x480) VBR
Auto Pan&Scan, Auto Letterboxed
Language Unit :
Root Menu
General
Complete name : Guns Girls and Gambling (2011) DVD5VIDEO_TSVTS_01_1.VOB
Format : MPEG-PS
File size : 1 024 MiB
Duration : 21mn 16s
Overall bit rate mode : Variable
Overall bit rate : 6 730 Kbps

Video
ID : 224 (0xE0)
Format : MPEG Video
Format version : Version 2
Format profile : Main@Main
Format settings, BVOP : Yes
Format settings, Matrix : Custom
Format settings, GOP : M=2, N=12
Duration : 21mn 16s
Bit rate mode : Variable
Bit rate : 5 764 Kbps
Maximum bit rate : 9 800 Kbps
Width : 720 pixels
Height : 480 pixels
Display aspect ratio : 16:9
Frame rate : 23.976 fps
Standard : NTSC
Color space : YUV
Chroma subsampling : 4:2:0
Bit depth : 8 bits
Scan type : Progressive
Scan order : 2:3 Pulldown
Compression mode : Lossy
Bits/(Pixel*Frame) : 0.696
Stream size : 877 MiB (86%)

Audio #1
ID : 189 (0xBD)-128 (0x80)
Format : AC-3
Format/Info : Audio Coding 3
Mode extension : CM (complete main)
Muxing mode : DVD-Video
Duration : 21mn 16s
Bit rate mode : Constant
Bit rate : 384 Kbps
Channel(s) : 6 channels
Channel positions : Front: L C R, Side: L R, LFE
Sampling rate : 48.0 KHz
Bit depth : 16 bits
Compression mode : Lossy
Stream size : 58.4 MiB (6%)

Audio #2
ID : 189 (0xBD)-129 (0x81)
Format : AC-3
Format/Info : Audio Coding 3
Mode extension : CM (complete main)
Muxing mode : DVD-Video
Duration : 21mn 16s
Bit rate mode : Constant
Bit rate : 448 Kbps
Channel(s) : 6 channels
Channel positions : Front: L C R, Side: L R, LFE
Sampling rate : 48.0 KHz
Bit depth : 16 bits
Compression mode : Lossy
Stream size : 68.2 MiB (7%)
Menu




_________________



реклама партнёра


Вернуться к началу
 Профиль Отправить личное сообщение  
 
   Похожие торренты   Автор   Торрент   Размер 
В этой теме нет новых непрочитанных сообщений. Пушки телки и азарт / Guns Girls and Gambling [Триллер, криминал, 2011] BDRemux 1080p, Dub [Лицензия]

salma3

166 | 48

14.22 ГБ

В этой теме нет новых непрочитанных сообщений. Братва, пушки и зомби / Gangsters, Guns and Zombies [ужасы, комедия, 2012] DVDRip, Avo [Xixidok]

salma3

5 | 2

1.21 ГБ

В этой теме нет новых непрочитанных сообщений. Братва, пушки и зомби / Gangsters, Guns and Zombies [ужасы, комедия, 2012] BDRip 720p, Avo

salma3

15 | 2

4.49 ГБ

В этой теме нет новых непрочитанных сообщений. Два ствола / 2 Guns [боевик, триллер, драма, комедия, 2013] DVD5, Avo

Dracon

0 | 2

4.34 ГБ

В этой теме нет новых непрочитанных сообщений. Tommy Shaw (Styx) - Girls With Guns / What If (Remastered, 2CD) [2013, Melodic Rock, AOR, MP3]

PriZraK

0 | 1

171.1 МБ

В этой теме нет новых непрочитанных сообщений. Крутые стволы / Mean Guns [боевик, триллер, криминал, 1997] BDRip 1080p, Mvo+Sub

salma3

43 | 8

12.33 ГБ

В этой теме нет новых непрочитанных сообщений. Молодые стрелки / Young Guns [Боевик, Триллер, Вестерн, Криминал, 1988] Blu-ray 1080p, Dvo+Sub

salma3

1 | 1

21.58 ГБ


Начать новую тему Ответить на тему  [ 1 сообщение ] 




Для Мосгорсуда, Роскомнадзора и рекламодателей:: mosgorsud-torrent[собачка]yandex.ru