Торрент файл
скачать торрент магнет ссылка Добавлен: 02 ноя 2013, 11:05
Размер: 4.14 ГБ
Сидеров: 0
Личеров: 1
Автор

СообщениеДобавлено: 02 ноя 2013, 11:05 

Не в сети
Зам. Админа
Аватара пользователя
Дата регистрации:
02 дек 2010, 12:39
Спасибо: 12460 / 214
Сообщения: 27968
Год выпуска: 2013
Жанр: Фантастика, фэнтези, боевик
Режиссер: Гильермо дель Торо

В ролях: Чарли Ханнэм, Идрис Эльба, Ринко Кикучи, Чарли Дэй, Роберт Казински, Макс Мартини, Рон Перлман, Клифтон Коллинз мл., Диего Клаттенхофф, Берн Горман

О фильме:
Когда из морских глубин поднялись легионы чудовищ, известных как Кайдзу, началась война, которой суждено было забрать миллионы жизней и свести «человеческие ресурсы» почти к нулю всего за несколько лет. Чтобы сражаться с пришельцами, было создано специальное оружие: огромные роботы, названные Джегерами, они управлялись одновременно двумя пилотами, чьи сознания соединены с помощью нейронной связи. Но даже Джегеры оказываются почти бессильны перед лицом безжалостных Кайдзу. На грани поражения у защитников человечества нет выбора, кроме как обратиться к двум весьма сомнительным героям — никому не нужному бывшему пилоту и неопытному стажеру — которые объединились, чтобы повести в бой некогда легендарного, но сейчас устаревшего Джегера. Вместе они оказываются единственной надеждой человечества, последним препятствием перед надвигающимся апокалипсисом.[/color]



Выпущено: США
Продолжительность: 02:11:17
Перевод: Дублированный [ iTunes]
Субтитры: Русские, английские

Источник:Тихоокеанский рубеж / Pacific Rim [Фантастика, фэнтези, боевик, 2013] BDRip 720p, Dub [iTunes]
Качество: DVD5
Видео: MPEG2 Video 720x576 (16:9) 25fps 8272kbps [Video - MPEG2, Main Profile, Main Level, 720x576, 25.000 fps, 8272.0 kbit/s (0000,e0,00)]
Аудио: Dolby AC3 48000Hz 6ch 448kbps [Audio - Dolby Digital, 48.0 kHz, 6 chn, 448.0 kbit/s (0000,bd,80)]
General
Complete name : D:\Тореннты\Тихоокеанский рубеж\VIDEO_TS\VTS_01_1.VOB
Format : MPEG-PS
File size : 1 024 MiB
Duration : 31mn 49s
Overall bit rate mode : Variable
Overall bit rate : 4 498 Kbps

Video
ID : 224 (0xE0)
Format : MPEG Video
Format version : Version 2
Format profile : Main@Main
Format settings, BVOP : No
Format settings, Matrix : Default
Format settings, GOP : M=3, N=12
Duration : 31mn 49s
Bit rate mode : Variable
Bit rate : 3 512 Kbps
Maximum bit rate : 8 272 Kbps
Width : 720 pixels
Height : 576 pixels
Display aspect ratio : 16:9
Frame rate : 25.000 fps
Standard : PAL
Color space : YUV
Chroma subsampling : 4:2:0
Bit depth : 8 bits
Scan type : Progressive
Scan order : Bottom Field First
Compression mode : Lossy
Bits/(Pixel*Frame) : 0.339
Time code of first frame : 00:00:00:00
Time code source : Group of pictures header
Stream size : 800 MiB (78%)

Audio #1
ID : 189 (0xBD)-128 (0x80)
Format : AC-3
Format/Info : Audio Coding 3
Mode extension : CM (complete main)
Format settings, Endianness : Big
Muxing mode : DVD-Video
Duration : 31mn 49s
Bit rate mode : Constant
Bit rate : 448 Kbps
Channel(s) : 6 channels
Channel positions : Front: L C R, Side: L R, LFE
Sampling rate : 48.0 KHz
Bit depth : 16 bits
Compression mode : Lossy
Delay relative to video : -40ms
Stream size : 102 MiB (10%)

Audio #2
ID : 189 (0xBD)-129 (0x81)
Format : AC-3
Format/Info : Audio Coding 3
Mode extension : CM (complete main)
Format settings, Endianness : Big
Muxing mode : DVD-Video
Duration : 31mn 49s
Bit rate mode : Constant
Bit rate : 448 Kbps
Channel(s) : 6 channels
Channel positions : Front: L C R, Side: L R, LFE
Sampling rate : 48.0 KHz
Bit depth : 16 bits
Compression mode : Lossy
Delay relative to video : -40ms
Stream size : 102 MiB (10%)

Text #1
ID : 189 (0xBD)-32 (0x20)
Format : RLE
Format/Info : Run-length encoding
Muxing mode : DVD-Video

Text #2
ID : 189 (0xBD)-33 (0x21)
Format : RLE
Format/Info : Run-length encoding
Muxing mode : DVD-Video

Text #3
ID : 189 (0xBD)-34 (0x22)
Format : RLE
Format/Info : Run-length encoding
Muxing mode : DVD-Video

Text #4
ID : 189 (0xBD)-35 (0x23)
Format : RLE
Format/Info : Run-length encoding
Muxing mode : DVD-Video

Menu





реклама партнёра


Вернуться к началу
 Профиль  
 
   Похожие торренты   Автор   Торрент   Размер 
В этой теме нет новых непрочитанных сообщений. Тихоокеанский рубеж / Pacific Rim [фантастика, боевик, приключения, 2013] BDRip-AVC, Dub+Sub [Лицензия]

salma3

265 | 9

1.45 ГБ

В этой теме нет новых непрочитанных сообщений. Последний рубеж / Homefront [Боевик, криминал, 2013] WEB-DLRip, Dub [Звук с TS]

Dracon

89 | 3

1.37 ГБ

В этой теме нет новых непрочитанных сообщений. Последний рубеж / Homefront [Боевик, криминал, 2013] HDRip, Dub [Лицензия]

Dracon

1914 | 77

1.37 ГБ

В этой теме нет новых непрочитанных сообщений. Последний рубеж / Homefront [Боевик, криминал, 2013] WEB-DL 720p, dub [Чистый звук]

Dracon

669 | 2

2.52 ГБ

В этой теме нет новых непрочитанных сообщений. Последний рубеж / Homefront [Боевик, криминал, 2013] HDRip, dub [Чистый звук]

Dracon

2215 | 74

1.46 ГБ

В этой теме нет новых непрочитанных сообщений. Последний рубеж / Homefront [Боевик, криминал, 2013] BDRip 1080p, Dub [Лицензия]

Dracon

259 | 22

8.71 ГБ

В этой теме нет новых непрочитанных сообщений. Последний рубеж / Homefront [Боевик, криминал, 2013] BDRip 1080p, dub [Чистый звук]

Dracon

496 | 29

9.62 ГБ


СообщениеДобавлено: 02 ноя 2013, 11:10 

Не в сети
Зам. Админа
Аватара пользователя
Дата регистрации:
02 дек 2010, 12:39
Спасибо: 12460 / 214
Сообщения: 27968
С русскими субтитрами получилась какая то белеберда...
Почему с BD 720p...потому что лицуха не выходила...


Вернуться к началу
 Профиль  
 

СообщениеДобавлено: 02 ноя 2013, 20:28 

Не в сети
Дата регистрации:
02 май 2013, 21:59
Спасибо: 0 / 0
Сообщения: 53
когда выходит лицуха


Вернуться к началу
 Профиль Отправить личное сообщение  
 

СообщениеДобавлено: 02 ноя 2013, 20:36 

Не в сети
Зам. Админа
Аватара пользователя
Дата регистрации:
02 дек 2010, 12:39
Спасибо: 12460 / 214
Сообщения: 27968
kirill76 писал(а):
когда выходит лицуха

14 ноября


Вернуться к началу
 Профиль  
 
Начать новую тему Ответить на тему  [ Сообщений: 4 ] 




Для Мосгорсуда, Роскомнадзора и рекламодателей:: mosgorsud-torrent[собачка]yandex.ru