Торрент файл
скачать торрент магнет ссылка Добавлен: 15 сен 2013, 22:18
Размер: 4.36 ГБ
Сидеров: 32
Личеров: 4
Статус: (salma3)
Автор

СообщениеДобавлено: 15 сен 2013, 22:18 

Не в сети
Супермодератор
Аватара пользователя
Дата регистрации:
15 фев 2012, 16:44
Возраст: 27
Спасибо: 5121 / 2089
Сообщения: 17296

Информация о фильме
Название: Шесть демонов Эмили Роуз
Оригинальное название: The Exorcism of Emily Rose
Год выхода: 2005
Жанр: ужасы, триллер, драма, криминал
Режиссер: Скотт Дерриксон
В ролях: Лора Линни, Том Уилкинсон, Кэмпбелл Скотт, Дженнифер Карпентер, Колм Фиор, Джошуа Клоуз, Кеннет Уэлш, Дункан Фрайзер, ДжейАр Борн, Мэри Бет Хёрт

О фильме:
Фильм основан на реальных событиях. В 1976 году сеанс изгнания дьявола из молодой девушки закончился ее смертью. Священнику-экзорцисту, проводившему обряд, было предъявлено обвинение в убийстве, хотя процесс был официально инициирован католической церковью.

В поиске справедливости священник изучает историю появления на земле демона, погубившего девушку, и пытается доказать в суде факт существования потусторонних сил и их способность вмешиваться в жизнь людей…


Страна: США
Студия: Lakeshore Entertainment, Screen Gems
Продолжительность: 122 мин. / 02:02
Перевод: профессиональный (полное дублирование)
Оригинальная дорожка: отсутствует

Файл
Кодек: MPEG2
Качество: DVD5
Видео: PAL 16:9 (720x576) 25.000 fps, 4788 Kbps
Звук: Dolby AC3, 6 ch, 48.0 KHz, 448 Kbps
Субтитры: отсутствуют

General
Complete name : E:Demony Emili RouzVIDEO_TSVTS_03_1.VOB
Format : MPEG-PS
File size : 1 024 MiB
Duration : 26mn 47s
Overall bit rate : 5 342 Kbps
Writing library : encoded by TMPGEnc (ver. 2.521.58.169)

Video
ID : 224 (0xE0)
Format : MPEG Video
Format version : Version 2
Format profile : Main@Main
Format settings, BVOP : No
Format settings, Matrix : Custom
Format settings, GOP : M=3, N=13
Duration : 26mn 47s
Bit rate : 4 788 Kbps
Width : 720 pixels
Height : 576 pixels
Display aspect ratio : 16:9
Frame rate : 25.000 fps
Standard : PAL
Color space : YUV
Chroma subsampling : 4:2:0
Bit depth : 8 bits
Compression mode : Lossy
Bits/(Pixel*Frame) : 0.462
Stream size : 918 MiB (90%)
Writing library : TMPGEnc 2.521.58.169
Color primaries : BT.601 PAL
Transfer characteristics : BT.470 System B, BT.470 System G
Matrix coefficients : FCC 73.682

Audio
ID : 189 (0xBD)-128 (0x80)
Format : AC-3
Format/Info : Audio Coding 3
Mode extension : CM (complete main)
Format settings, Endianness : Big
Muxing mode : DVD-Video
Duration : 26mn 47s
Bit rate mode : Constant
Bit rate : 448 Kbps
Channel(s) : 6 channels
Channel positions : Front: L C R, Side: L R, LFE
Sampling rate : 48.0 KHz
Bit depth : 16 bits
Compression mode : Lossy
Delay relative to video : -50ms
Stream size : 85.9 MiB (8%)

Menu





реклама партнёра


Вернуться к началу
 Профиль Отправить личное сообщение  
 
   Похожие торренты   Автор   Торрент   Размер 
В этой теме нет новых непрочитанных сообщений. Охотники на демонов / Hellbenders [ужасы, триллер, комедия, 2012] DVD5, Dub [лицензия]

salma3

4 | 3

3.8 ГБ

В этой теме нет новых непрочитанных сообщений. Шесть пуль / 6 Bullets [боевик, триллер, криминал, 2012] DVD5, Mvo

Dracon

12 | 5

4.3 ГБ

В этой теме нет новых непрочитанных сообщений. Черная роза / Black Rose [Детектив, триллер, криминал, 2014] DVD5 [Лицензия]

Dracon

63 | 8

4.29 ГБ

В этой теме нет новых непрочитанных сообщений. Шесть дней, шесть ночей / À la folie [драма, 1994] DVDRip, Avo+Sub

salma3

52 | 6

699.65 МБ

В этой теме нет новых непрочитанных сообщений. Чужая дочь / Audrey Rose [ужасы, фэнтези, триллер, драма, 1977] BDRip 1080p, Mvo+Sub

salma3

7 | 5

15.73 ГБ

В этой теме нет новых непрочитанных сообщений. Чужая дочь / Audrey Rose [ужасы, фэнтези, триллер, драма, 1977] BDRip 720p, Mvo+Sub

salma3

13 | 4

6.77 ГБ

В этой теме нет новых непрочитанных сообщений. Охотники на демонов / Hellbenders [комедия, ужасы, триллер, 2012] BDRip 1080p, Dub [Лицензия]

salma3

19 | 4

7.1 ГБ


Начать новую тему Ответить на тему  [ 1 сообщение ] 




Для Мосгорсуда, Роскомнадзора и рекламодателей:: mosgorsud-torrent[собачка]yandex.ru