Торрент файл
скачать торрент магнет ссылка Добавлен: 23 авг 2013, 10:08
Размер: 4.1 ГБ
Сидеров: 6
Личеров: 2
Статус: (salma3)
Автор

СообщениеДобавлено: 23 авг 2013, 10:08 

Не в сети
Супермодератор
Аватара пользователя
Дата регистрации:
15 фев 2012, 16:44
Возраст: 27
Спасибо: 5131 / 2089
Сообщения: 17372

Информация о фильме
Название: Тринадцать привидений
Оригинальное название: Thir13en Ghosts
Год выхода: 2001
Жанр: ужасы, триллер, детектив
Режиссер: Стив Бек
В ролях: Тони Шэлуб, Эмбет Дэвидц, Мэттью Лиллард, Шеннон Элизабет, Алек Робертс, ДжейАр Борн, Ра Дигга, Ф. Мюррэй Абрахам, Мэттью Харрисон, Джейкоб Рапп

О фильме:
После смерти своего странного дядюшки Сайруса, Артур Критикос унаследовал его не менее странный дом. В этом причудливом здании все стены и пол из стекла, украшенного латинскими заклинаниями. В этом доме автоматические двери живут своей жизнью, открываясь и закрываясь в ритме, недоступном человеческому пониманию.

Не сразу Артур поймет, что, переступив порог этого жуткого особняка, он исполнит злую волю Сайруса и освободит дюжину мстительных призраков, обитающих в подвале. И тогда энергия духов приведет в действие агрегат, открывающий путь ко всей мощи потустороннего мира. Но для этого нужно, чтобы к черному зодиаку двенадцати привидений присоединилось еще одно…


Страна: США, Канада
Студия: Columbia Pictures Corporation, Dark Castle Entertainment, Warner Bros. Pictures
Продолжительность: 91 мин. / 01:31
Перевод: профессиональный (многоголосый, закадровый)
Доп. материалы: скоро в кинотеатрах

Файл
Кодек: MPEG2
Качество: DVD5
Видео: PAL 16:9 (720x576) VBR 5507 Kbps, 25.000 fps
Звук: Dolby AC3, 6 ch, 48.0 KHz, 448 Kbps
Субтитры: русские, английские, арабские, болгарские, хорватские, чешские

General
Complete name : D:13 GHOSTSVIDEO_TSVTS_02_1.VOB
Format : MPEG-PS
File size : 1 024 MiB
Duration : 21mn 54s
Overall bit rate mode : Variable
Overall bit rate : 6 533 Kbps

Video
ID : 224 (0xE0)
Format : MPEG Video
Format version : Version 2
Format profile : Main@Main
Format settings, BVOP : No
Format settings, Matrix : Custom
Format settings, GOP : M=3, N=12
Duration : 21mn 54s
Bit rate mode : Variable
Bit rate : 5 507 Kbps
Maximum bit rate : 9 800 Kbps
Width : 720 pixels
Height : 576 pixels
Display aspect ratio : 16:9
Frame rate : 25.000 fps
Standard : PAL
Color space : YUV
Chroma subsampling : 4:2:0
Bit depth : 8 bits
Scan type : Interlaced
Scan order : Top Field First
Compression mode : Lossy
Bits/(Pixel*Frame) : 0.531
Time code of first frame : 00:00:00:00
Time code source : Group of pictures header
Stream size : 863 MiB (84%)

Audio #1
ID : 189 (0xBD)-128 (0x80)
Format : AC-3
Format/Info : Audio Coding 3
Mode extension : CM (complete main)
Format settings, Endianness : Big
Muxing mode : DVD-Video
Duration : 21mn 54s
Bit rate mode : Constant
Bit rate : 448 Kbps
Channel count : 6 channels
Channel positions : Front: L C R, Side: L R, LFE
Sampling rate : 48.0 KHz
Bit depth : 16 bits
Compression mode : Lossy
Stream size : 70.2 MiB (7%)

Audio #2
ID : 189 (0xBD)-129 (0x81)
Format : AC-3
Format/Info : Audio Coding 3
Mode extension : CM (complete main)
Format settings, Endianness : Big
Muxing mode : DVD-Video
Duration : 21mn 54s
Bit rate mode : Constant
Bit rate : 448 Kbps
Channel count : 6 channels
Channel positions : Front: L C R, Side: L R, LFE
Sampling rate : 48.0 KHz
Bit depth : 16 bits
Compression mode : Lossy
Stream size : 70.2 MiB (7%)

Text #1
ID : 189 (0xBD)-32 (0x20)
Format : RLE
Format/Info : Run-length encoding
Muxing mode : DVD-Video

Text #2
ID : 189 (0xBD)-33 (0x21)
Format : RLE
Format/Info : Run-length encoding
Muxing mode : DVD-Video

Text #3
ID : 189 (0xBD)-34 (0x22)
Format : RLE
Format/Info : Run-length encoding
Muxing mode : DVD-Video

Text #4
ID : 189 (0xBD)-35 (0x23)
Format : RLE
Format/Info : Run-length encoding
Muxing mode : DVD-Video

Text #5
ID : 189 (0xBD)-36 (0x24)
Format : RLE
Format/Info : Run-length encoding
Muxing mode : DVD-Video

Text #6
ID : 189 (0xBD)-37 (0x25)
Format : RLE
Format/Info : Run-length encoding
Muxing mode : DVD-Video

Menu




реклама партнёра


Вернуться к началу
 Профиль Отправить личное сообщение  
 
   Похожие торренты   Автор   Торрент   Размер 
В этой теме нет новых непрочитанных сообщений. Призраки Марса / Ghosts of Mars [Ужасы, фантастика, боевик, 2001] BDRip-AVC, Mvo+Avo+Sub

salma3

35 | 1

2.91 ГБ

В этой теме нет новых непрочитанных сообщений. Ночь вампиров / The Forsaken [Ужасы, триллер, 2001] DVD5, Mvo

salma3

5 | 4

3.75 ГБ

В этой теме нет новых непрочитанных сообщений. Приют кошмаров / The Attic Expeditions [ужасы, триллер, комедия, детектив, 2001] DVDRip, Avo

salma3

50 | 8

1.46 ГБ

В этой теме нет новых непрочитанных сообщений. Призраки в Коннектикуте 2: Тени прошлого / The Haunting in Connecticut 2: Ghosts of Georgia (Том Элкинс) [2013, ужасы, триллер, драма, BDRip | Лицензия] Dub

Nickolas3435

454 | 23

1.45 ГБ

В этой теме нет новых непрочитанных сообщений. Призраки в Коннектикуте 2: Тени прошлого / The Haunting in Connecticut 2: Ghosts of Georgia [ужасы, триллер, драма, 2013] HDRip, dub [Чистый звук]

Dracon

200 | 5

1.46 ГБ

В этой теме нет новых непрочитанных сообщений. Call of Duty: Ghosts - Ghosts Deluxe Edition [Update 20] [Action, 2014] [Патч]

Dracon

133 | 80

3.7 ГБ

В этой теме нет новых непрочитанных сообщений. Call of Duty: Ghosts - Ghosts Deluxe Edition [Update 20] [Action, 3D, 1st Person, 2013] [Rip]

salma3

3 | 7

28.99 ГБ


Начать новую тему Ответить на тему  [ 1 сообщение ] 




Для Мосгорсуда, Роскомнадзора и рекламодателей:: mosgorsud-torrent[собачка]yandex.ru