Торрент файл
скачать торрент магнет ссылка Добавлен: 21 авг 2013, 20:31
Размер: 4.18 ГБ
Сидеров: 47
Личеров: 3
Статус: (salma3)
Автор

СообщениеДобавлено: 21 авг 2013, 20:31 

В сети
Супермодератор
Аватара пользователя
Дата регистрации:
15 фев 2012, 16:44
Возраст: 27
Спасибо: 5143 / 2090
Сообщения: 17501

Информация о фильме
Название: Поворот не туда
Оригинальное название: Wrong Turn
Год выхода: 2003
Жанр: ужасы, триллер
Режиссер: Роб Шмидт
В ролях: Десмонд Хэррингтон, Элиза Душку, Эммануэль Шрики, Джереми Систо, Кевин Зегерс, Линди Бут, Джулиан Ричингс, Гэрри Роббинс, Тед Кларк, Ивонн Годри

О фильме:
Затерявшись в лесах Западной Вирджинии в результате рокового стечения обстоятельств, группа молодых людей пытается добраться до ближайшего телефона. Но вместо телефона им суждено найти дом в горах, увешанный страшным оружием и отвратительными трофеями…

Кто, или что живет в этом доме? Молодые люди начинают понимать, что все их злоключения — способ загнать дичь в ловушку, где они — это дичь, а зловещие охотники — обитатели дома…


Страна: США, Германия
Студия: Constantin Film Produktion GmbH, Summit Entertainment
Продолжительность: 84 мин. / 01:24
Перевод: профессиональный (полное дублирование)
Доп. материалы: рассказ о съемках

Файл
Кодек: MPEG2
Качество: DVD5
Видео: PAL 16:9 (720x576) 25.000 fps, VBR 5072 Kbps
Звук 1: Dolby AC3, 6 ch, 48.0 KHz, 384 Kbps русский, английский
Звук 2: DTS 6 ch, 48.0 KHz, 755 Kbps русский
Субтитры: русские

General
Complete name : D:POVOROT NE TUDAVIDEO_TSVTS_01_1.VOB
Format : MPEG-PS
File size : 1 024 MiB
Duration : 21mn 16s
Overall bit rate mode : Variable
Overall bit rate : 6 729 Kbps

Video
ID : 224 (0xE0)
Format : MPEG Video
Format version : Version 2
Format profile : Main@Main
Format settings, BVOP : No
Format settings, Matrix : Default
Format settings, GOP : M=5, N=26
Duration : 21mn 16s
Bit rate mode : Variable
Bit rate : 5 072 Kbps
Maximum bit rate : 7 500 Kbps
Width : 720 pixels
Height : 576 pixels
Display aspect ratio : 2.40:1
Frame rate : 25.000 fps
Standard : PAL
Color space : YUV
Chroma subsampling : 4:2:0
Bit depth : 8 bits
Scan type : Interlaced
Scan order : Top Field First
Compression mode : Lossy
Bits/(Pixel*Frame) : 0.489
Time code of first frame : 00:00:00:00
Time code source : Group of pictures header
Stream size : 772 MiB (75%)
Color primaries : BT.601 PAL
Transfer characteristics : BT.470 System B, BT.470 System G
Matrix coefficients : BT.601

Audio #1
ID : 189 (0xBD)-128 (0x80)
Format : AC-3
Format/Info : Audio Coding 3
Mode extension : CM (complete main)
Format settings, Endianness : Big
Muxing mode : DVD-Video
Duration : 21mn 16s
Bit rate mode : Constant
Bit rate : 384 Kbps
Channel count : 6 channels
Channel positions : Front: L C R, Side: L R, LFE
Sampling rate : 48.0 KHz
Bit depth : 16 bits
Compression mode : Lossy
Stream size : 58.4 MiB (6%)

Audio #2
ID : 189 (0xBD)-130 (0x82)
Format : AC-3
Format/Info : Audio Coding 3
Mode extension : CM (complete main)
Format settings, Endianness : Big
Muxing mode : DVD-Video
Duration : 21mn 16s
Bit rate mode : Constant
Bit rate : 384 Kbps
Channel count : 6 channels
Channel positions : Front: L C R, Side: L R, LFE
Sampling rate : 48.0 KHz
Bit depth : 16 bits
Compression mode : Lossy
Stream size : 58.4 MiB (6%)

Audio #3
ID : 189 (0xBD)-137 (0x89)
Format : DTS
Format/Info : Digital Theater Systems
Mode : 16
Format settings, Endianness : Big
Muxing mode : DVD-Video
Duration : 21mn 16s
Bit rate mode : Constant
Bit rate : 755 Kbps
Channel count : 6 channels
Channel positions : Front: L C R, Side: L R, LFE
Sampling rate : 48.0 KHz
Bit depth : 24 bits
Compression mode : Lossy
Stream size : 115 MiB (11%)

Text
ID : 189 (0xBD)-32 (0x20)
Format : RLE
Format/Info : Run-length encoding
Muxing mode : DVD-Video

Menu




реклама партнёра


Вернуться к началу
 Профиль Отправить личное сообщение  
 
   Похожие торренты   Автор   Торрент   Размер 
В этой теме нет новых непрочитанных сообщений. Поворот не туда 6: Последний курорт / Wrong Turn 6: Last Resort [ужасы, 2014] HDRip, Mvo

Dracon

4874 | 151

1.37 ГБ

В этой теме нет новых непрочитанных сообщений. Поворот не туда 6: Последний курорт / Wrong Turn 6: Last Resort [ужасы, 2014] BDRemux, Mvo+Sub

salma3

24 | 7

23.4 ГБ

В этой теме нет новых непрочитанных сообщений. Поворот не туда 6: Последний курорт / Wrong Turn 6: Last Resort [UNRATED] [ужасы, 2014] BDRip 720p, Mvo

Dracon

4 | 2

4.5 ГБ

В этой теме нет новых непрочитанных сообщений. Поворот не туда 6: Последний курорт / Wrong Turn 6: Last Resort [UNRATED] [ужасы, 2014] BDRip 720p, Mvo+Sub

Dracon

150 | 5

8.03 ГБ

В этой теме нет новых непрочитанных сообщений. Поворот не туда 6: Последний курорт / Wrong Turn 6: Last Resort (Валерий Милев) [2014, ужасы, HDRip | Unrated | Лицензия] mvo

Nickolas3435

1633 | 62

1.46 ГБ

В этой теме нет новых непрочитанных сообщений. Поворот винта / The Turn of the Screw [триллер, 1992] DVDRip, Avo

salma3

47 | 8

1.46 ГБ

В этой теме нет новых непрочитанных сообщений. Поворот / Turn [S01] [Драма, 2014] WEB-DL 1080p [BaibaKo]

Dracon

17 | 9

17.77 ГБ


СообщениеДобавлено: 27 авг 2013, 19:25 

Не в сети
Аватара пользователя
Дата регистрации:
04 авг 2013, 19:13
Спасибо: 0 / 4
Сообщения: 5
Откуда: Новочебоксарск
спасибо


Вернуться к началу
 Профиль Отправить личное сообщение  
 
Начать новую тему Ответить на тему  [ Сообщений: 2 ] 




Для Мосгорсуда, Роскомнадзора и рекламодателей:: mosgorsud-torrent[собачка]yandex.ru