Торрент файл
скачать торрент магнет ссылка Добавлен: 26 июн 2013, 12:17
Размер: 3.84 ГБ
Сидеров: 0
Личеров: 3
Автор

СообщениеДобавлено: 26 июн 2013, 12:17 

Не в сети
Супермодератор
Аватара пользователя
Дата регистрации:
15 фев 2012, 16:44
Возраст: 28
Спасибо: 6589 / 2145
Сообщения: 44094

Гильдия / Downward Angel

Год выхода: 2001
Жанр: Триллер
Режиссер: Кевин Льюис
В ролях: Мэтт Шульц, Джонатан Бэнкс, Дон Кэлфа, Уитни Дилан, Гэбриэлль Фицпатрик, Бобби Дж. Фоксворф, Кристофер Френсис, Дженнифер Гэрис, Чак Келли, Эджгай Керклэнд, Кристофер Криса, Дэвид Лесур, Каталина Ларранага, Рабатан Салем, Рик Сарабиа
О фильме: Вот уже много лет Джон Хантер пытается внедриться в подпольную организацию «Гильдия», чтобы отомстить за смерть своих родителей. В конце концов, ему это удается, но, рискуя быть обнаруженным, Джону приходиться доказывать, что он настоящий член банды. Главарь банды — Хэрод в скором времени просит Хантера присмотреть за его подружкой Джиллиан. Джиллиан признается Джону, что ей уже надоел Хэрод, и начинает соблазнять Хантера. После того как у «Гильдии» были похищены бриллианты на миллион долларов, Джону поручают ликвидировать виновника. Хантер вскоре понимает, что это — Джиллиан. Он решает идти против правил и защищает ее. Теперь они оба в бегах.



Страна: США
Студия: Plum Creek Road
Продолжительность: 01:33:12
Перевод: Профессиональный [двухголосый]
Субтитры: Русские
Файл
Кодек: MPEG-2
Качество: DVD-5
Видео: PAL 4:3 (720x576) VBR
Звук: Русский, английский (Dolby AC3, 6 ch)

Title: Локальный диск
Size: 3.84 Gb ( 4 022 212 KBytes ) - DVD-5
Enabled regions: 1, 2, 3, 4, 5, 6, 7, 8

VTS_01 :
Play Length: 01:33:12
Video: PAL 4:3 (720x576) VBR
Audio:
Russian (Dolby AC3, 6 ch)
English (Dolby AC3, 6 ch)
Subtitles:
Russian

Menu Video:
PAL 4:3 (720x576) VBR
Menu Audio:
Not specified (Dolby AC3, 6 ch)
Menu Subtitles:
Not specified
Menu Russian Language Unit :
Root Menu
Audio Menu
Angle menu
Chapter (PTT) Menu
Общее
Полное имя : D:1АААГильдия Downward AngelVIDEO_TSVTS_01_1.VOB
Формат : MPEG-PS
Размер файла : 1024 Мбайт
Продолжительность : 25 м.
Режим общего битрейта : Переменный
Общий поток : 5596 Кбит/сек

Видео
Идентификатор : 224 (0xE0)
Формат : MPEG Video
Версия формата : Version 2
Профиль формата : Main@Main
Параметр BVOP формата : Да
Параметр матрицы формата : Выборочная
Параметр GOP формата : M=3, N=12
Продолжительность : 25 м.
Вид битрейта : Переменный
Битрейт : 4717 Кбит/сек
Максимальный битрейт : 8500 Кбит/сек
Ширина : 720 пикселей
Высота : 576 пикселей
Соотношение сторон : 4:3
Частота кадров : 25,000 кадров/сек
Стандарт вещания : PAL
Цветовое пространство : YUV
Субдискретизация насыщенности : 4:2:0
Битовая глубина : 8 бит
Тип развёртки : Чересстрочная
Порядок развёртки : Верхнее поле первое
Метод сжатия : С потерями
Бит/(Пиксели*Кадры) : 0.455
TimeCode_FirstFrame : 01:00:00:00
TimeCode_Source : Group of pictures header
Размер потока : 863 Мбайт (84%)

Аудио #1
Идентификатор : 189 (0xBD)-128 (0x80)
Формат : AC-3
Формат/Информация : Audio Coding 3
Расширение режима : CM (complete main)
Параметр Endianness формата : Big
Режим смешивания : DVD-Video
Продолжительность : 25 м.
Вид битрейта : Постоянный
Битрейт : 384 Кбит/сек
Каналы : 6 каналов
Расположение каналов : Front: L C R, Side: L R, LFE
Частота : 48,0 КГц
Битовая глубина : 16 бит
Метод сжатия : С потерями
Задержка видео : -80 мс.
Размер потока : 70,3 Мбайт (7%)

Аудио #2
Идентификатор : 189 (0xBD)-129 (0x81)
Формат : AC-3
Формат/Информация : Audio Coding 3
Расширение режима : CM (complete main)
Параметр Endianness формата : Big
Режим смешивания : DVD-Video
Продолжительность : 25 м.
Вид битрейта : Постоянный
Битрейт : 384 Кбит/сек
Каналы : 6 каналов
Расположение каналов : Front: L C R, Side: L R, LFE
Частота : 48,0 КГц
Битовая глубина : 16 бит
Метод сжатия : С потерями
Задержка видео : -80 мс.
Размер потока : 70,3 Мбайт (7%)

Текст
Идентификатор : 189 (0xBD)-32 (0x20)
Формат : RLE
Формат/Информация : Run-length encoding
Режим смешивания : DVD-Video
Задержка видео : 5 с. 720 мс.

Меню




реклама партнёра


Вернуться к началу
 Профиль Отправить личное сообщение  
 
   Похожие торренты   Автор   Торрент   Размер 
В этой теме нет новых непрочитанных сообщений. Глаза ангела / Angel Eyes [Мелодрама, триллер, драма, 2001] DVDRip-AVC, Mvo+Dvo

salma3

183 | 9

1.86 ГБ

В этой теме нет новых непрочитанных сообщений. Downward [Adventure, Indie, 2017] [Лицензия]

DuraAce

0 | 0

7.13 ГБ

В этой теме нет новых непрочитанных сообщений. Женщина в черном 2: Ангел смерти / The Woman in Black 2: Angel of Death (Том Харпер) [ужасы, триллер, драма, 2014] DVD5, Dub [Лицензия]

Dracon

71 | 14

3.94 ГБ

В этой теме нет новых непрочитанных сообщений. Противостояние / The One [фантастика, боевик, триллер, 2001] DVD5, Dub+Avo+Sub

salma3

16 | 5

4.36 ГБ

В этой теме нет новых непрочитанных сообщений. [EvilAngel.com] Angel Smalls, Anna De Ville (BONUS-Dirty Angel's Graphic Lesbian Sodomy (Angel Smalls In Dirty Little Angel) / 01.03.17.) [2017 г., Gonzo, Lesbian, Toys, Anal, 540p]

salma3

27 | 9

369.17 МБ

В этой теме нет новых непрочитанных сообщений. [DigitalPlayground.com] Blair Williams - Downward Dog (20.05.2017) [2017 г., Blonde, Blowjob, Deepthroat, Sport, Big Tits, Anal, Facial]

salma3

38 | 13

428.4 МБ

В этой теме нет новых непрочитанных сообщений. Elegant Angel - Лучшие Ангелы / All-Time Best Angels Vol.1 (2010) DVD5

salma3

7 | 4

4.36 ГБ


Начать новую тему Ответить на тему  [ 1 сообщение ] 




Для Мосгорсуда, Роскомнадзора и рекламодателей:: mosgorsud-torrent[собачка]yandex.ru