Торрент файл
скачать торрент магнет ссылка Добавлен: 21 июн 2013, 15:02
Размер: 3.86 ГБ
Сидеров: 9
Личеров: 6
Автор

СообщениеДобавлено: 21 июн 2013, 15:02 

Не в сети
Супермодератор
Аватара пользователя
Дата регистрации:
15 фев 2012, 16:44
Возраст: 27
Спасибо: 5143 / 2090
Сообщения: 17514

Операция Лазер / Laser mission

Год выхода: 1990
Жанр: Боевик
Режиссер: Би Джи Дэвис
В ролях: Брэндон Ли, Деби Монахан, Эрнест Боргнайн, Грэхэм Кларк, Вернер Похат, Пьер Кноссен, Морин Лауд

О фильме: Майкл Голд приезжает в кубинский социалистический рай, где правят товарищи, чтобы вывезти профессора Брауна, чьи изобретения могут стать угрозой человечеству…

Страна: США, Германия, ЮАР
Студия: Azimuth, IMV Vertieb Media, Interfilm L.A.
Продолжительность: 01:24:57
Перевод: Авторский одноголосый (Гаврилов)



Файл
Кодек: MPEG-2
Качество: DVD-5
Видео: PAL 16:9 (720x576) VBR
Звук: Русский, английский (Dolby AC3, 2 ch)

Title: Локальный диск
Size: 3.86 Gb ( 4 044 686 KBytes ) - DVD-5
Enabled regions: 1, 2, 3, 4, 5, 6, 7, 8

VTS_01 :
Play Length: 01:24:57
Video: PAL 16:9 (720x576) VBR, Auto Pan&Scan
Audio:
English (Dolby AC3, 2 ch)
Russian (Dolby AC3, 2 ch)

Menu Video:
PAL 4:3 (720x576) VBR
Menu Subtitles:
Not specified
Menu English Language Unit :
Root Menu
Общее
Полное имя : D:1АААLaser MissionVIDEO_TSVTS_01_1.VOB
Формат : MPEG-PS
Размер файла : 1024 Мбайт
Продолжительность : 22 м.
Режим общего битрейта : Переменный
Общий поток : 6494 Кбит/сек

Видео
Идентификатор : 224 (0xE0)
Формат : MPEG Video
Версия формата : Version 2
Профиль формата : Main@Main
Параметр BVOP формата : Да
Параметр матрицы формата : Выборочная
Параметр GOP формата : Variable
Продолжительность : 22 м.
Вид битрейта : Переменный
Битрейт : 5981 Кбит/сек
Максимальный битрейт : 8000 Кбит/сек
Ширина : 720 пикселей
Высота : 576 пикселей
Соотношение сторон : 16:9
Частота кадров : 25,000 кадров/сек
Стандарт вещания : PAL
Цветовое пространство : YUV
Субдискретизация насыщенности : 4:2:0
Битовая глубина : 8 бит
Тип развёртки : Чересстрочная
Порядок развёртки : Верхнее поле первое
Метод сжатия : С потерями
Бит/(Пиксели*Кадры) : 0.577
TimeCode_FirstFrame : 00:00:00:00
TimeCode_Source : Group of pictures header
Размер потока : 943 Мбайт (92%)

Аудио #1
Идентификатор : 189 (0xBD)-128 (0x80)
Формат : AC-3
Формат/Информация : Audio Coding 3
Расширение режима : CM (complete main)
Параметр Endianness формата : Big
Режим смешивания : DVD-Video
Продолжительность : 22 м.
Вид битрейта : Постоянный
Битрейт : 192 Кбит/сек
Каналы : 2 канала
Расположение каналов : Front: L R
Частота : 48,0 КГц
Битовая глубина : 16 бит
Метод сжатия : С потерями
Размер потока : 30,3 Мбайт (3%)

Аудио #2
Идентификатор : 189 (0xBD)-129 (0x81)
Формат : AC-3
Формат/Информация : Audio Coding 3
Расширение режима : CM (complete main)
Параметр Endianness формата : Big
Режим смешивания : DVD-Video
Продолжительность : 22 м.
Вид битрейта : Постоянный
Битрейт : 192 Кбит/сек
Каналы : 2 канала
Расположение каналов : Front: L R
Частота : 48,0 КГц
Битовая глубина : 16 бит
Метод сжатия : С потерями
Размер потока : 30,3 Мбайт (3%)

Меню




реклама партнёра


Вернуться к началу
 Профиль Отправить личное сообщение  
 
   Похожие торренты   Автор   Торрент   Размер 
В этой теме нет новых непрочитанных сообщений. Миссия «Манила» / Mission Manila [боевик, 1990] DVDRip, Avo

salma3

28 | 2

1.37 ГБ

В этой теме нет новых непрочитанных сообщений. Операция Негодяй / Операция Возмездие / Operation Rogue [боевик, 2014] DVDRip, Mvo [Лицензия]

salma3

865 | 17

1.37 ГБ

В этой теме нет новых непрочитанных сообщений. Миссия / Cheung foh / The Mission [боевик, триллер, драма, 1999] DVDRip, Avo

salma3

95 | 7

1.45 ГБ

В этой теме нет новых непрочитанных сообщений. Операция «Гадюка» / Viper [Боевик, драма, 1988] DVDRip, Avo

salma3

90 | 11

1.37 ГБ

В этой теме нет новых непрочитанных сообщений. Тайная операция / The Borderland [боевик, триллер, 2014] DVDRip, Avo

salma3

60 | 1

738.4 МБ

В этой теме нет новых непрочитанных сообщений. ЦРУ: Операция «Алекса» / CIA Code Name: Alexa [Боевик, триллер, 1992] HDRip, Mvo+Avo

salma3

52 | 1

1.47 ГБ

В этой теме нет новых непрочитанных сообщений. Миссия невыполнима / Mission: Impossible [S01] [боевик, триллер, драма, приключения, 1966] DVDRip, Avo [Белов]

salma3

99 | 68

11.71 ГБ


Начать новую тему Ответить на тему  [ 1 сообщение ] 




Для Мосгорсуда, Роскомнадзора и рекламодателей:: mosgorsud-torrent[собачка]yandex.ru