Торрент файл
скачать торрент магнет ссылка Добавлен: 09 июн 2013, 11:19
Размер: 4.36 ГБ
Сидеров: 3
Личеров: 2
Автор

СообщениеДобавлено: 09 июн 2013, 11:19 

Не в сети
Зам. Админа
Аватара пользователя
Дата регистрации:
02 дек 2010, 12:39
Спасибо: 12461 / 214
Сообщения: 27968


Год выпуска: 2012
Жанр: Комедия
Выпущено: США, Армения, Red Tie Films, Filmworks/FX
Режиссер: Гор Киракосян
В ролях: Дейв Шеридан, Джейми Кеннеди, Анджела Сарафян, Сердар Кэлсин, Бобби Беркмен, Мориса Харба, Алекс Калогномос, Марк Герагос, Вачик Мангассариан, Микаел Погосян

О фильме: На морском побережье солнечной Турции царит беззаботное веселье, и только сын американского сенатора страдает от несчастной любви. Ничто не может вернуть ему вкус к жизни — ни море, ни друзья, ни красивые девушки. Но неожиданное событие вмиг излечивает героя от хандры: «попутный» ветер уносит его в соседнюю Армению, в маленькую горную деревню, где его — полуголого, с парашютом за спиной и говорящего на непонятном языке — принимают за турецко-азербайджанского шпиона. В стране, о существовании которой самонадеянный американец еще вчера даже не догадывался, его ждет невероятный водоворот событий — с похищением, перестрелкой, погоней и, конечно же, романтической историей…



Оригинальная аудиодорожка: армянский
Продолжительность: 01:41:18
Перевод: Дублированный со вставками многоголосого перевода на английскую речь
Cубтитры: русские

Бонусы: отсутствуют
Меню: на русском языке, статичное, озвученное
Тип релиза: DVD5 (Сжатый)
Контейнер: DVD-Video
Видео: PAL 16:9 (720x576) VBR Auto Pan&Scan, Auto Letterboxed; 25,000 fps; 5349 kbps
Аудио 1: Russian (Dolby AC3, 6 ch, 448 Кбит/сек, 48,0 КГц)
Аудио 2: Armenian (Dolby AC3, 6 ch, 448 Кбит/сек, 48,0 КГц)
Формат субтитров: prerendered (DVD/IDX+SUB)

Семпл

Общее
Полное имя : F:Neverojatnye.prikljuchenija.amerikanca.v.Armenii.2012.DVD5VIDEO_TSVTS_02_3.VOB
Формат : MPEG-PS
Размер файла : 1024 Мбайт
Продолжительность : 22 м.
Общий поток : 6372 Кбит/сек

Видео
Идентификатор : 224 (0xE0)
Формат : MPEG Video
Версия формата : Version 2
Профиль формата : Main@Main
Параметр BVOP формата : Да
Параметр матрицы формата : По умолчанию
Продолжительность : 22 м.
Вид битрейта : Переменный
Битрейт : 5349 Кбит/сек
Номинальный битрейт : 8492 Кбит/сек
Ширина : 720 пикс.
Высота : 576 пикс.
Соотношение сторон : 16:9
Частота кадров : 25,000 кадр/сек
Стандарт вещания : PAL
Цветовое пространство : YUV
Подвыборка цветности : 4:2:0
Битовая глубина : 8 бит
Тип развёртки : Прогрессивная
Порядок развёртки : Нижнее поле первое
Метод сжатия : С потерями
Бит/(Пиксели*Кадры) : 0.516
Размер потока : 860 Мбайт (84%)

Аудио #1
Идентификатор : 189 (0xBD)-128 (0x80)
Формат : AC-3
Формат/Информация : Audio Coding 3
Расширение режима : CM (complete main)
Режим смешивания : DVD-Video
Продолжительность : 22 м.
Вид битрейта : Постоянный
Битрейт : 448 Кбит/сек
Каналы : 6 каналов
Расположение каналов : Front: L C R, Side: L R, LFE
Частота : 48,0 КГц
Битовая глубина : 16 бит
Метод сжатия : С потерями
Задержка видео : -448 мс.
Размер потока : 72,0 Мбайт (7%)

Аудио #2
Идентификатор : 189 (0xBD)-129 (0x81)
Формат : AC-3
Формат/Информация : Audio Coding 3
Расширение режима : CM (complete main)
Режим смешивания : DVD-Video
Продолжительность : 22 м.
Вид битрейта : Постоянный
Битрейт : 448 Кбит/сек
Каналы : 6 каналов
Расположение каналов : Front: L C R, Side: L R, LFE
Частота : 48,0 КГц
Битовая глубина : 16 бит
Метод сжатия : С потерями
Задержка видео : -448 мс.
Размер потока : 72,0 Мбайт (7%)

Текст #1
Идентификатор : 189 (0xBD)-32 (0x20)
Формат : RLE
Формат/Информация : Run-length encoding
Режим смешивания : DVD-Video
Продолжительность : 22 м.
Задержка видео : 1 с. 440 мс.

Текст #2
Идентификатор : 189 (0xBD)-33 (0x21)
Формат : RLE
Формат/Информация : Run-length encoding
Режим смешивания : DVD-Video

Меню

Title: Neverojatnye.prikljuchenija.amerikanca.v.Armenii.2012.DVD5
Size: 4.36 Gb ( 4 566 734,00 KBytes ) - DVD-5
Enabled regions: 1, 2, 3, 4, 5, 6, 7, 8

VTS_01 :
Play Length: 00:00:00+00:00:00+00:00:00
Video: PAL 4:3 (720x576) VBR
Audio:
Russian (Dolby AC3, 6 ch)
English (Dolby AC3, 6 ch)
English (Dolby AC3, 6 ch)

VTS_02 :
Play Length: 01:41:18
Video: PAL 16:9 (720x576) VBR, Auto Pan&Scan, Auto Letterboxed
Audio:
Russian (Dolby AC3, 6 ch)
Armenian (Dolby AC3, 6 ch)
Subtitles:
Russian
Russian

* Menus Information *

VIDEO_TS Menu
Video:
NTSC 4:3 (720x480) VBR
Auto Pan&Scan, Auto Letterboxed
English Language Unit :
Title Menu

VTS_01 Menu
Video:
PAL 4:3 (720x576) VBR
Audio:
Not specified (Dolby AC3, 2 ch)
English Language Unit :
Root Menu
Chapter (PTT) Menu

VTS_02 Menu
Video:
PAL 4:3 (720x576) VBR
English Language Unit :
Root Menu
Subpicture Menu
Audio Menu
Chapter (PTT) Menu






реклама партнёра


Вернуться к началу
 Профиль  
 
   Похожие торренты   Автор   Торрент   Размер 
В этой теме нет новых непрочитанных сообщений. Невероятные приключения кота / Oggy et les cafards [комедия, 2013] BDRip [Лицензия]

salma3

148 | 9

1.45 ГБ

В этой теме нет новых непрочитанных сообщений. Toy Odyssey: The Lost and Found [Adventure (Platform), Indie, 2016] [RePack]

Sykre

3 | 1

433.37 МБ

В этой теме нет новых непрочитанных сообщений. Том и Джерри: Потерянный дракон / Tom & Jerry: The Lost Dragon [мультфильм, комедия, 2014] DVD5, Mvo+Sub [лицензия]

Dracon

37 | 6

3.74 ГБ

В этой теме нет новых непрочитанных сообщений. Белка и Стрелка: Лунные приключения [мультфильм, комедия, приключения, семейный, 2013] DVD5 [Лицензия]

Dracon

31 | 7

4.34 ГБ

В этой теме нет новых непрочитанных сообщений. Lost Paradise [v.0.30.1.3055] [MMO-Action, 2012] [Лицензия]

druid81max

0 | 2

1.9 ГБ

В этой теме нет новых непрочитанных сообщений. Курьер из «Рая» [комедия, приключения, 2013] DVD5 [лицензия]

Dracon

68 | 6

3.73 ГБ

В этой теме нет новых непрочитанных сообщений. Четверг, 12-e [Комедия, мелодрама, 2012] DVD5 [Лицензия]

Dracon

114 | 22

3.54 ГБ


Начать новую тему Ответить на тему  [ 1 сообщение ] 




Для Мосгорсуда, Роскомнадзора и рекламодателей:: mosgorsud-torrent[собачка]yandex.ru