Торрент файл
скачать торрент магнет ссылка Добавлен: 03 июн 2013, 12:53
Размер: 4.37 ГБ
Сидеров: 0
Личеров: 4
Автор

СообщениеДобавлено: 03 июн 2013, 12:53 

Не в сети
Супермодератор
Аватара пользователя
Дата регистрации:
15 фев 2012, 16:44
Возраст: 27
Спасибо: 5143 / 2090
Сообщения: 17514

Место под соснами / The Place Beyond the Pines

Год выпуска: 2012
Жанр: Драма, криминал
Выпущено: США, Electric City Entertainment
Режиссер: Дерек Сиенфрэнс
В ролях: Райан Гослинг, Брэдли Купер, Ева Мендес, Рэй Лиотта, Бен Мендельсон, Роуз Бирн, Махершалалхашбаз Али, Брюс Гринвуд, Харрис Юлин, Дэйн ДеХаан

О фильме: История профессионального мотогонщика, который начинает грабить банки, чтобы содержать новорожденного сына. Однажды на его пути встает полицейский, и столкновение парней перерастает в личную войну.



Файл
Качество видео: DVD5
Видео: MPEG-2, 720x576@1024x576 (PAL 16:9), ~4000 kbps, 0.395 bit/pixel
Аудио 1: AC3 5.1, 384 kbps, 48 kHz [Русский - дублированный]
Аудио 2: AC3 5.1, 384 kbps, 48 kHz [Английский - оригинал]
Продолжительность: 02:14:36
Перевод: Дублированный [лицензия]
Субтитры: Вшитые отключаемые
Язык субтитров: Русский

Title:The.Place.Beyond.the.Pines.(2012).DVD5
Size: 4.37 Gb ( 4 582 504 KBytes ) - DVD-5
Enabled regions: 1, 2, 3, 4, 5, 6, 7, 8

VTS_01 :
Play Length: 02:14:36
Video: PAL 16:9 (720x576) VBR, Auto Pan&Scan
Audio:
Russian (Dolby AC3, 6 ch)
English (Dolby AC3, 6 ch)
Subtitles:
Russian

Полное имя : D:The.Place.Beyond.the.Pines.(2012).DVD5VIDEO_TSVTS_01_1.VOB
Формат : MPEG-PS
Размер файла : 1024 Мбайт
Продолжительность : 28 м.
Режим общего битрейта : Переменный
Общий поток : 4959 Кбит/сек

Видео
Идентификатор : 224 (0xE0)
Формат : MPEG Video
Версия формата : Version 2
Профиль формата : Main@Main
Параметр BVOP формата : Да
Параметр матрицы формата : Выборочная
Продолжительность : 28 м.
Вид битрейта : Переменный
Битрейт : 4092 Кбит/сек
Ширина : 720 пикселей
Высота : 576 пикселей
Соотношение сторон : 2,40:1
Частота кадров : 25,000 кадров/сек
Стандарт вещания : PAL
Цветовое пространство : YUV
Субдискретизация насыщенности : 4:2:0
Битовая глубина : 8 бит
Метод сжатия : С потерями
Бит/(Пиксели*Кадры) : 0.395
Размер потока : 845 Мбайт (83%)
Основные цвета : BT.601 PAL
Характеристики трансфера : BT.470 System B, BT.470 System G
Коэффициенты матрицы : BT.601

Аудио #1
Идентификатор : 189 (0xBD)-128 (0x80)
Формат : AC-3
Формат/Информация : Audio Coding 3
Расширение режима : CM (complete main)
Параметр Endianness формата : Big
Режим смешивания : DVD-Video
Продолжительность : 28 м.
Вид битрейта : Постоянный
Битрейт : 384 Кбит/сек
Каналы : 6 каналов
Расположение каналов : Front: L C R, Side: L R, LFE
Частота : 48,0 КГц
Битовая глубина : 16 бит
Метод сжатия : С потерями
Размер потока : 79,3 Мбайт (8%)

Аудио #2
Идентификатор : 189 (0xBD)-130 (0x82)
Формат : AC-3
Формат/Информация : Audio Coding 3
Расширение режима : CM (complete main)
Параметр Endianness формата : Big
Режим смешивания : DVD-Video
Продолжительность : 28 м.
Вид битрейта : Постоянный
Битрейт : 384 Кбит/сек
Каналы : 6 каналов
Расположение каналов : Front: L C R, Side: L R, LFE
Частота : 48,0 КГц
Битовая глубина : 16 бит
Метод сжатия : С потерями
Размер потока : 79,3 Мбайт (8%)

Меню

Исходник: Место под соснами / The Place Beyond the Pines (2012) DVD9 (R5)
Удалены: дополнительные материалы, предупреждения и заставки, русская звуковая дорожка (AC3 2.0).
Видео сжато: сжатие конечных титров на 75%, сжатие самого фильма на 30%.
Меню: статичное, на русском языке, недействующие кнопки затерты и закрыты.
Обработка и сжатие: DVD ReMake Pro + DVD Rebuilder + CCE SP2 1.00.01.09 [7 проходов] + Работа с меню (Adobe PhotoShop и MuxMan).







реклама партнёра


Вернуться к началу
 Профиль Отправить личное сообщение  
 
   Похожие торренты   Автор   Торрент   Размер 
В этой теме нет новых непрочитанных сообщений. Одинокое место для смерти / Похищенная / A Lonely Place to Die [триллер, драма, боевик, криминал, 2011] BDRip, Mvo [Лицензия]

salma3

123 | 6

1.45 ГБ

В этой теме нет новых непрочитанных сообщений. Проклятое место / Lost Place [ужасы, триллер, детектив , 2013] WEBRip, Mvo

salma3

2739 | 188

1.36 ГБ

В этой теме нет новых непрочитанных сообщений. Проклятое место / Lost Place [ужасы, триллер, 2013] BDRip 1080p, Mvo

salma3

68 | 11

4.13 ГБ

В этой теме нет новых непрочитанных сообщений. Проклятое место  / Lost Place (Торстен Клайн) [ужасы, триллер, детектив, 2013] HDRip, Mvo

Dracon

2 | 4

1.37 ГБ

В этой теме нет новых непрочитанных сообщений. Место под солнцем / En plats i solen [триллер, драма, криминал, 2012] HDRip, Mvo

salma3

148 | 7

1.37 ГБ

В этой теме нет новых непрочитанных сообщений. Волк с Уолл-стрит / The Wolf of Wall Street [драма, комедия, криминал, биография, 2013] DVD5, Dub+Sub [сжатый]

Dracon

38 | 6

4.36 ГБ

В этой теме нет новых непрочитанных сообщений. Одинокое место для смерти / A lonely place for dying (Джастин Юджин Эванс / Justin Eugene Evans) [2012г., шпионский триллер, WEB-DL 720p] VO+ sub

Alfredovich

15 | 7

3.58 ГБ


Начать новую тему Ответить на тему  [ 1 сообщение ] 




Для Мосгорсуда, Роскомнадзора и рекламодателей:: mosgorsud-torrent[собачка]yandex.ru