Торрент файл
скачать торрент магнет ссылка Добавлен: 26 май 2013, 11:03
Размер: 4.04 ГБ
Сидеров: 0
Личеров: 1
Автор

СообщениеДобавлено: 26 май 2013, 11:04 

Не в сети
Зам. Админа
Аватара пользователя
Дата регистрации:
02 дек 2010, 12:39
Спасибо: 12623 / 214
Сообщения: 28012

Год выхода: 2012
Жанр: фэнтези, драма
Режиссер: Бен Зайтлин
В ролях: Кувенжане Уоллис, Дуайт Генри, Леви Истерли, Лоуелл Лэндис, Памела Харпер, Джина Монтанна, Эмбер Генри, Джоншел Александр, Николас Кларк, Джозеф Браун

О фильме:
Шестилетняя Хашпаппи живет с отцом Винком в общине на краю мира. Они проводят свои дни, плавая в поисках рыбы в некоем подобии лодки, сделанной из остова пикапа. И пусть Винк суровый отец, зато его дочь будет подготовлена к выживанию в одиночку, когда его не станет. Однажды Винка скашивает непонятная болезнь, а природа сходит с ума: тают ледники, поднимается вода, появляется армия доисторических животных. Здоровье Винка все хуже, и Хашпаппи решает отправится на поиски своей матери…



Выпущено: США / Fox Searchlight Pictures, Cinereach, Court 13 Pictures
Продолжительность: 01:33:19
Озвучивание: Профессиональное (многоголосое) [лицензия]

Формат: MPEG-PS
Качество: DVD5
Видео: MPEG2 Video 720x576 (16:9) 25fps 8248kbps [Video - MPEG2, Main Profile, Main Level, 720x576, 25.000 fps, 8248.0 kbit/s (0000,e0,00)]
Subtitle: DVD Subpicture [Video - DVD Sub Picture (0000,bd,20)]
Аудио: Dolby AC3 48000Hz 6ch 384kbps [Audio - Dolby Digital, 48.0 kHz, 6 chn, 384.0 kbit/s (0000,bd,80)]
General
Complete name : D:\DVD\Zveri.dikogo.Yuga.2012.P\VIDEO_TS\VTS_01_1.VOB
Format : MPEG-PS
File size : 1 024 MiB
Duration : 22mn 42s
Overall bit rate mode : Variable
Overall bit rate : 6 303 Kbps

Video
ID : 224 (0xE0)
Format : MPEG Video
Format version : Version 2
Format profile : Main@Main
Format settings, BVOP : Yes
Format settings, Matrix : Default
Format settings, GOP : M=3, N=13
Duration : 22mn 42s
Bit rate mode : Variable
Bit rate : 5 218 Kbps
Maximum bit rate : 8 248 Kbps
Width : 720 pixels
Height : 576 pixels
Display aspect ratio : 16:9
Frame rate : 25.000 fps
Standard : PAL
Color space : YUV
Chroma subsampling : 4:2:0
Bit depth : 8 bits
Scan type : Progressive
Compression mode : Lossy
Bits/(Pixel*Frame) : 0.503
Stream size : 848 MiB (83%)

Audio #1
ID : 189 (0xBD)-128 (0x80)
Format : AC-3
Format/Info : Audio Coding 3
Mode extension : CM (complete main)
Muxing mode : DVD-Video
Duration : 22mn 42s
Bit rate mode : Constant
Bit rate : 384 Kbps
Channel(s) : 6 channels
Channel positions : Front: L C R, Side: L R, LFE
Sampling rate : 48.0 KHz
Bit depth : 16 bits
Compression mode : Lossy
Delay relative to video : 40ms
Stream size : 62.4 MiB (6%)

Audio #2
ID : 189 (0xBD)-129 (0x81)
Format : AC-3
Format/Info : Audio Coding 3
Mode extension : CM (complete main)
Muxing mode : DVD-Video
Duration : 22mn 42s
Bit rate mode : Constant
Bit rate : 192 Kbps
Channel(s) : 2 channels
Channel positions : Front: L R
Sampling rate : 48.0 KHz
Bit depth : 16 bits
Compression mode : Lossy
Delay relative to video : 40ms
Stream size : 31.2 MiB (3%)

Audio #3
ID : 189 (0xBD)-130 (0x82)
Format : AC-3
Format/Info : Audio Coding 3
Mode extension : CM (complete main)
Muxing mode : DVD-Video
Duration : 22mn 42s
Bit rate mode : Constant
Bit rate : 384 Kbps
Channel(s) : 6 channels
Channel positions : Front: L C R, Side: L R, LFE
Sampling rate : 48.0 KHz
Bit depth : 16 bits
Compression mode : Lossy
Delay relative to video : 40ms
Stream size : 62.4 MiB (6%)

Text
ID : 189 (0xBD)-32 (0x20)
Format : RLE
Format/Info : Run-length encoding
Muxing mode : DVD-Video
Duration : 22mn 42s
Delay relative to video : 40ms

Menu


Требуются пиры...




реклама партнёра


Вернуться к началу
 Профиль  
 
   Похожие торренты   Автор   Торрент   Размер 
В этой теме нет новых непрочитанных сообщений. Безродные звери / Beasts of No Nation (Кэри Джоджи Фукунага) [2015, Драма, военный, WEBRip 1080p] dvo

Dracon

167 | 23

8.57 ГБ

В этой теме нет новых непрочитанных сообщений. Фантастические твари и где они обитают / Fantastic Beasts and Where to Find Them [Фэнтези, приключения, семейный, 2016] DVD5, Dub

salma3

173 | 66

4.37 ГБ

В этой теме нет новых непрочитанных сообщений. Фантастические твари и где они обитают / Fantastic Beasts and Where to Find Them [фэнтези, приключения, семейный, 2016] BDRip, Dub [Лицензия]

salma3

16339 | 9256

2.05 ГБ

В этой теме нет новых непрочитанных сообщений. Фантастические твари и где они обитают / Fantastic Beasts and Where to Find Them [фэнтези, приключения, семейный, 2016] BDRip, Dub [КПК] [Лицензия]

salma3

31 | 8

854.06 МБ

В этой теме нет новых непрочитанных сообщений. Фантастические твари и где они обитают / Fantastic Beasts and Where to Find Them [фэнтези, приключения, семейный, 2016] BDRip, Dub [Лицензия]

Dracon

946 | 325

1.37 ГБ

В этой теме нет новых непрочитанных сообщений. Фантастические твари и где они обитают / Fantastic Beasts and Where to Find Them [фэнтези, приключения, семейный, 2016] Blu-Ray 1080p, Dub+Sub [Лицензия]

salma3

237 | 391

46.44 ГБ

В этой теме нет новых непрочитанных сообщений. Фантастические твари и где они обитают / Fantastic Beasts and Where to Find Them [Фэнтези, приключения, семейный, 2016] BDRip-AVC, Dub+Sub [Лицензия]

salma3

343 | 35

2.41 ГБ


СообщениеДобавлено: 26 май 2013, 12:47 

Не в сети
Зам. Админа
Аватара пользователя
Дата регистрации:
02 дек 2010, 12:39
Спасибо: 12623 / 214
Сообщения: 28012
Требуются пиры...


Вернуться к началу
 Профиль  
 
Начать новую тему Ответить на тему  [ Сообщений: 2 ] 




Для Мосгорсуда, Роскомнадзора и рекламодателей:: mosgorsud-torrent[собачка]yandex.ru