Торрент файл
скачать торрент магнет ссылка Добавлен: 25 май 2013, 15:29
Размер: 4.36 ГБ
Сидеров: 1
Личеров: 3
Автор

СообщениеДобавлено: 25 май 2013, 15:35 

Не в сети
Зам. Админа
Аватара пользователя
Дата регистрации:
02 дек 2010, 12:39
Спасибо: 12461 / 214
Сообщения: 27968

Год выхода: 2012
Жанр:комедия, приключения, семейный
Режиссер: Лоран Тирар
В ролях: Жерар Депардье, Эдуард Баэр, Гийом Гальенн, Венсан Лакост, Валери Лемерсье, Фабрис Лукини, Катрин Денёв, Шарлотта Лебон, Боли Ланнерс, Дэни Бун

О фильме:Пятидесятый год до нашей эры. Юлий Цезарь рвется к новым завоеваниям. Во главе своих прославленных легионов он собирается захватить остров, который находится на самом краю света — таинственную страну, именуемую Британией. Войско Цезаря одерживает быструю и безоговорочную победу. Ну… почти безоговорочную: одна крошечная деревушка продолжает яростно обороняться, однако силы на исходе, и королева бриттов Корделия отправляет офицера Красовакса за подмогой в Галлию. Когда к галлам приезжает Красовакс, те снабжают его бочонком своего знаменитого волшебного зелья, а Астерикс и Обеликс отправляются вместе с ним в Британию. Гадорикса они тоже берут с собой, ведь путешествие — отличный способ пополнить образование молодого человека. Но, к сожалению, все идет не так, как задумывалось…



Выпущено:Венгрия, Испания, Италия, Франция / Bruxelles Capitale, Cinetotal, Fidйlitй Films, France Tйlйvision, Les Editions Albert Renй, Lucky Red, Morena Films S.L.
Продолжительность: 01:50:15
Озвучивание: Дублированное [Лицензия]

Формат: DVD5 (Сжатый)
Контейнер: DVD-Video
Видео: PAL 16:9 (720x576) 4 955 Kbps
Аудио: Francais (Dolby AC3, 6 ch) 320 Kbps
Аудио 2: Russian (Dolby AC3, 6 ch) 384 Kbps

General
Complete name : D:\_Video\Asteriks.i.Obeliks.v.Britanii.2012.DVD5\VIDEO_TS\VTS_11_1.VOB
Format : MPEG-PS
File size : 1 024 MiB
Duration : 24mn 47s
Overall bit rate : 5 774 Kbps

Video
ID : 224 (0xE0)
Format : MPEG Video
Format version : Version 2
Format profile : Main@Main
Format settings, BVOP : Yes
Format settings, Matrix : Custom
Duration : 24mn 47s
Bit rate mode : Variable
Bit rate : 4 955 Kbps
Maximum bit rate : 8 497 Kbps
Width : 720 pixels
Height : 576 pixels
Display aspect ratio : 16:9
Frame rate : 25.000 fps
Standard : PAL
Color space : YUV
Chroma subsampling : 4:2:0
Bit depth : 8 bits
Scan type : Interlaced
Scan order : Top Field First
Compression mode : Lossy
Bits/(Pixel*Frame) : 0.478
Stream size : 879 MiB (86%)

Audio #1
ID : 189 (0xBD)-128 (0x80)
Format : AC-3
Format/Info : Audio Coding 3
Mode extension : CM (complete main)
Muxing mode : DVD-Video
Duration : 24mn 47s
Bit rate mode : Constant
Bit rate : 384 Kbps
Channel(s) : 6 channels
Channel positions : Front: L C R, Side: L R, LFE
Sampling rate : 48.0 KHz
Bit depth : 16 bits
Compression mode : Lossy
Stream size : 68.1 MiB (7%)

Audio #2
ID : 189 (0xBD)-130 (0x82)
Format : AC-3
Format/Info : Audio Coding 3
Mode extension : CM (complete main)
Muxing mode : DVD-Video
Duration : 24mn 47s
Bit rate mode : Constant
Bit rate : 320 Kbps
Channel(s) : 6 channels
Channel positions : Front: L C R, Side: L R, LFE
Sampling rate : 48.0 KHz
Bit depth : 16 bits
Compression mode : Lossy
Stream size : 56.7 MiB (6%)

Text #1
ID : 189 (0xBD)-33 (0x21)
Format : RLE
Format/Info : Run-length encoding
Muxing mode : DVD-Video

Text #2
ID : 189 (0xBD)-34 (0x22)
Format : RLE
Format/Info : Run-length encoding
Muxing mode : DVD-Video

Menu




реклама партнёра


Вернуться к началу
 Профиль  
 
   Похожие торренты   Автор   Торрент   Размер 
В этой теме нет новых непрочитанных сообщений. Астерикс: Земля Богов / Astérix: Le domaine des dieux / Asterix: The Mansions of the Gods (Луис Клиши, Александр Астье) [мультфильм, приключения, фэнтези, комедия, 2014] BDRip 1080p, Dub [3D-Video]

Dracon

66 | 2

4.12 ГБ

В этой теме нет новых непрочитанных сообщений. Астерикс и Клеопатра / Asterix et Cleopatre [комедия, приключения, 1968] BDRip 720p, Mvo+Sub

salma3

29 | 13

5.33 ГБ

В этой теме нет новых непрочитанных сообщений. Астерикс: Земля Богов / Asterix: Le domaine des dieux [мультфильм, приключения, фэнтези, комедия, 2014] TS, dub [Чистый звук]

Dracon

5023 | 162

1.36 ГБ

В этой теме нет новых непрочитанных сообщений. Астерикс: Земля Богов / Asterix: Le domaine des dieux (Луис Клиши, Александр Астье) [мультфильм, приключения, фэнтези, комедия, 2014] HDRip, Dub [iTunes]

Dracon

367 | 11

1.37 ГБ

В этой теме нет новых непрочитанных сообщений. Астерикс: Земля Богов / Asterix: Le domaine des dieux (Луис Клиши, Александр Астье) [мультфильм, приключения, фэнтези, комедия, 2014] BDRip 1080p, Dub [iTunes]

Dracon

94 | 5

6.58 ГБ

В этой теме нет новых непрочитанных сообщений. Астерикс: Земля Богов / Asterix: Le domaine des dieux (Луис Клиши, Александр Астье) [мультфильм, приключения, фэнтези, комедия, 2014] BDRip 720p, Dub [iTunes]

Dracon

1105 | 88

3.36 ГБ

В этой теме нет новых непрочитанных сообщений. Белка и Стрелка: Лунные приключения [мультфильм, комедия, приключения, семейный, 2013] DVD5 [Лицензия]

Dracon

31 | 7

4.34 ГБ


Начать новую тему Ответить на тему  [ 1 сообщение ] 




Для Мосгорсуда, Роскомнадзора и рекламодателей:: mosgorsud-torrent[собачка]yandex.ru