Торрент файл
скачать торрент магнет ссылка Добавлен: 15 май 2013, 21:23
Размер: 3.99 ГБ
Сидеров: 22
Личеров: 2
Автор

СообщениеДобавлено: 15 май 2013, 21:23 

Не в сети
Зам. Админа
Аватара пользователя
Дата регистрации:
02 дек 2010, 12:39
Спасибо: 12561 / 214
Сообщения: 28070


Страна: США
Режиссер: Тейлор Хэкфорд
Жанр: Боевик, Триллер, Криминал
Продолжительность: 01:58:09
Год выпуска: 2013
В ролях: Джейсон Стэйтем, Дженнифер Лопез, Майкл Чиклис, Бобби Каннавале, Ник Нолти, Уенделл Пирс, Клифтон Коллинз мл, Пэтти ЛюПон, Карлос Карраско, Мика А Хауптман ...
Описание: Главный герой — профессиональный вор, руководствующийся собственным моральным кодексом, но способный запросто отправить на тот свет любого, кто перейдет ему дорогу.

Перевод: Профессиональный (полное дублирование) [Чистый звук]
Субтитры: Отсутствуют

Формат: DVD5, DVD Video, MPEG2, AC3
Видео: 720х480 (NTSC 16:9), MPEG2 Video, 23.976 fps, ~ 4328 kbps avg, 0.522 bit/pixel
Аудио: Русский: 48 kHz, AC3 Dolby Digital, 6 ch, 448 kbps avg [Профессиональный (полное дублирование)]
Доп. информация:

Общее
Полное имя: D:\Downloads\Паркер\VIDEO_TS\VTS_01_1.VOB
Формат: MPEG-PS
Размер файла: 1024 Мбайт
Продолжительность: 29 м.
Общий поток: 4873 Кбит/сек
Библиотека кодирования: encoded by TMPGEnc Authoring Works 5 Version. 5.0.8.26
Видео
Идентификатор: 224 (0xE0)
Формат: MPEG Video
Версия формата: Version 2
Профиль формата: Main@Main
Параметр BVOP формата: Да
Параметр матрицы формата: По умолчанию
Продолжительность: 29 м.
Вид битрейта: Переменный
Битрейт: 4328 Кбит/сек
Номинальный битрейт: 8000 Кбит/сек
Ширина: 720 пикс.
Высота: 480 пикс.
Соотношение сторон: 16:9
Частота кадров: 23,976 кадр/сек
Стандарт вещания: NTSC
Цветовое пространство: YUV
Подвыборка цветности: 4:2:0
Битовая глубина: 8 бит
Тип развёртки: Прогрессивная
Порядок развёртки: 2:3 Pulldown
Метод сжатия: С потерями
Бит/(Пиксели*Кадры): 0.522
Размер потока: 909 Мбайт (89%)
Библиотека кодирования: TMPGEnc Authoring Works 5 Version. 5.0.8.26
Аудио
Идентификатор: 189 (0xBD)-128 (0x80)
Формат: AC-3
Формат/Информация: Audio Coding 3
Расширение режима: CM (complete main)
Режим смешивания: DVD-Video
Продолжительность: 29 м.
Вид битрейта: Постоянный
Битрейт: 448 Кбит/сек
Каналы: 6 каналов
Расположение каналов: Front: L C R, Side: L R, LFE
Частота: 48,0 КГц
Битовая глубина: 16 бит
Метод сжатия: С потерями
Размер потока: 94,1 Мбайт (9%)
Меню










реклама партнёра


Вернуться к началу
 Профиль  
 
   Похожие торренты   Автор   Торрент   Размер 
В этой теме нет новых непрочитанных сообщений. Кровавая месть / In the Blood [триллер, боевик, криминал, 2013] HDRip, dub [Чистый звук]

Dracon

1715 | 64

1.37 ГБ

В этой теме нет новых непрочитанных сообщений. Кровавая месть / In the Blood [триллер, боевик, криминал, 2013] BDRip 720p, dub [Чистый звук]

Dracon

446 | 18

4.64 ГБ

В этой теме нет новых непрочитанных сообщений. Кровавая месть / In the Blood [триллер, боевик, криминал, 2013] BDRip 1080p, dub [Чистый звук]

Dracon

2 | 2

8.18 ГБ

В этой теме нет новых непрочитанных сообщений. Добро пожаловать в капкан / Welcome to the Punch [Боевик, триллер, криминал, приключения, 2013] HDRip, dub [Чистый звук]

Dracon

980 | 13

1.36 ГБ

В этой теме нет новых непрочитанных сообщений. Медсестра / Nurse 3-D [Триллер, 2013] HDRip, dub [чистый звук]

Dracon

0 | 3

1.37 ГБ

В этой теме нет новых непрочитанных сообщений. Лок / Locke [триллер, драма, 2013] HDRip, dub [Чистый звук]

Dracon

1165 | 16

1.37 ГБ

В этой теме нет новых непрочитанных сообщений. Оборотень / Wer [триллер, ужасы, детектив, 2013] WEB-DL 720p, Dub [Чистый звук]

Dracon

371 | 9

2.87 ГБ


Начать новую тему Ответить на тему  [ 1 сообщение ] 




Для Мосгорсуда, Роскомнадзора и рекламодателей:: mosgorsud-torrent[собачка]yandex.ru