Торрент файл
скачать торрент магнет ссылка Добавлен: 15 май 2013, 12:32
Размер: 2.68 ГБ
Сидеров: 25
Личеров: 6
Автор

СообщениеДобавлено: 15 май 2013, 12:32 

В сети
Супермодератор
Аватара пользователя
Дата регистрации:
15 фев 2012, 16:44
Возраст: 28
Спасибо: 6563 / 2129
Сообщения: 43561

Дракула 3D / Dracula

Год выхода: 2012
Жанр:ужасы, триллер, мелодрама
Режиссер: Дарио Ардженто
В ролях: Азия Ардженто, Рутгер Хауэр, Томас Кречманн, Марта Гастини, Унакс Угальде, Мириам Джованелли, Морган Слемп, Мария Кристина Хеллер, Аугусто Дзукки, Джузеппе Ло Консоле

О фильме: Трансильвания, 1893 год. Молодой библиотекарь Джонатан Харкер прибывает в деревню Пассо Борго, нанявшись на работу к местному аристократу графу Дракуле. Познакомившись со своим загадочным хозяином, Джонатан вскоре узнает истинную натуру графа и понимает, в какой опасности находится он сам и его жена Мина. Одни за другим вокруг таинственно погибают люди. Кажется, только Авраам ван Хельсинг, уже встречавшийся на пути графа, способен изменить их печальную участь.



Меню: есть, на русском, статичное, не озвученное

Выпущено: Италия, Франция, Испания
Продолжительность: 01:50:00
Озвучивание: Любительское (двухголосое) [HamsterStudio]

Файл
Тип релиза: DVD5
Контейнер: DVD-Video

Видео: MPEG-2 Video; PAL 16:9 (720x576) VBR, Auto Letterboxed; 3137 Kbps; 25 fps
Аудио:AC3, 6 ch, 448 Kbps, 48 KHz

Семпл

DVDInfo

Title: Дракула (2012). DVD-5
Size: 2.68 Gb ( 2 807 774,00 KBytes ) - DVD-5
Enabled regions: 1, 2, 3, 4, 5, 6, 7, 8

Audio #1: AC3, 3/2 (L,C,R,SL,SR)+LFE ch, 448 kbps, Delay 0 mSec

VTS_01 :
Play Length: 01:50:00
Video: PAL 16:9 (720x576) VBR, Auto Letterboxed
Audio:
Not specified (Dolby AC3, 6 ch)

* Menus Information *

VIDEO_TS Menu
Video:
NTSC 4:3 (720x480) VBR
Auto Pan&Scan, Auto Letterboxed
Language Unit :
Title Menu

VTS_01 Menu
Video:
PAL 16:9 (720x576) VBR
Auto Letterboxed
Language Unit :
Root Menu

MediaInfo

Общее
Полное имя: D:MovieДракула (2012). DVD-5VIDEO_TSVTS_01_1.VOB
Формат: MPEG-PS
Размер файла: 1024 Мбайт
Продолжительность: 39 м.
Режим общего битрейта: Переменный
Общий поток: 3658 Кбит/сек
Библиотека кодирования: encoded by TMPGEnc Authoring Works 5 Version. 5.0.8.26

Видео
Идентификатор: 224 (0xE0)
Формат: MPEG Video
Версия формата: Version 2
Профиль формата: Main@Main
Параметр BVOP формата: Да
Параметр матрицы формата: По умолчанию
Параметр GOP формата: M=3, N=12
Продолжительность: 39 м.
Вид битрейта: Переменный
Битрейт: 3137 Кбит/сек
Максимальный битрейт: 9800 Кбит/сек
Ширина: 720 пикселей
Высота: 576 пикселей
Соотношение сторон: 16:9
Частота кадров: 25,000 кадров/сек
Стандарт вещания: PAL
Цветовое пространство: YUV
Субдискретизация насыщенности: 4:2:0
Битовая глубина: 8 бит
Метод сжатия: С потерями
Бит/(Пиксели*Кадры): 0.303
Размер потока: 878 Мбайт (86%)
Выравнивание: encoded by TMPGEnc Authoring Works 5 Version. 5.0.8.26
Заголовок: TMPGEnc
Программа кодирования: Authoring Works 5 Version. 5.0.8.26
Библиотека кодирования: TMPGEnc Authoring Works 5 Version. 5.0.8.26
Основные цвета: BT.601 PAL
Характеристики трансфера: BT.470 System B, BT.470 System G
Коэффициенты матрицы: BT.601

Аудио
Идентификатор: 189 (0xBD)-128 (0x80)
Формат: AC-3
Формат/Информация: Audio Coding 3
Расширение режима: CM (complete main)
Параметр Endianness формата: Big
Режим смешивания: DVD-Video
Продолжительность: 39 м.
Вид битрейта: Постоянный
Битрейт: 448 Кбит/сек
Каналы: 6 каналов
Расположение каналов: Front: L C R, Side: L R, LFE
Частота: 48,0 КГц
Битовая глубина: 16 бит
Метод сжатия: С потерями
Размер потока: 125 Мбайт (12%)

Меню




реклама партнёра


Вернуться к началу
 Профиль Отправить личное сообщение  
 
   Похожие торренты   Автор   Торрент   Размер 
В этой теме нет новых непрочитанных сообщений. Дракула / Dracula [ужасы, фэнтези, мелодрама, 1992] Blu-ray CEE 1080p, Dub+Sub

salma3

12 | 40

45.17 ГБ

В этой теме нет новых непрочитанных сообщений. Дракула 2000 / Dracula 2000 [ужасы, фэнтези, боевик, триллер, 2000] BDRip 1080p, Dub+Sub

salma3

54 | 14

9.81 ГБ

В этой теме нет новых непрочитанных сообщений. Дракула 2000 / Dracula 2000 [ужасы, фэнтези, боевик, триллер, 2000] BDRip 720p, Dub+Sub

salma3

101 | 8

3.83 ГБ

В этой теме нет новых непрочитанных сообщений. Дракула / Dracula Untold [ужасы, фэнтези, боевик, драма, военный, 2014] WEB-DLRip-AVC, Dub [iTunes]

Dracon

1286 | 56

1.46 ГБ

В этой теме нет новых непрочитанных сообщений. Дракула: Мертвый и довольный / Dracula: Dead and Loving It [комедия, фэнтези, ужасы, 1995] WEB-DL 1080p, Mvo

salma3

32 | 19

8.97 ГБ

В этой теме нет новых непрочитанных сообщений. Дракула / Dracula Untold [ужасы, фэнтези, боевик, драма, военный, 2014] BDRip 720p, Dub [iTunes]

Dracon

799 | 65

4.62 ГБ

В этой теме нет новых непрочитанных сообщений. Дракула / Dracula Untold (Гари Шор) [ужасы, фэнтези, боевик, драма, военный, 2014] BDRip, Dub [Лицензия]

Dracon

415 | 17

1.37 ГБ


Начать новую тему Ответить на тему  [ 1 сообщение ] 




Для Мосгорсуда, Роскомнадзора и рекламодателей:: mosgorsud-torrent[собачка]yandex.ru