Торрент файл
скачать торрент магнет ссылка Добавлен: 11 май 2013, 10:22
Размер: 3.15 ГБ
Сидеров: 81
Личеров: 6
Автор

СообщениеДобавлено: 11 май 2013, 10:22 

Не в сети
Зам. Админа
Аватара пользователя
Дата регистрации:
02 дек 2010, 12:39
Спасибо: 12623 / 214
Сообщения: 28012

Страна: США, Германия
Режиссер: Томми Виркола
Жанр: ужасы, фентези, боевик
Продолжительность: 01:27:43
Год выпуска: 2013
В ролях: Джереми Реннер Джемма Артертон Фамке Янссен Пихла Виитала Дерек Мирс Робин Аткин Даунс Ингрид Болсай Бердал Джоэнна Кулиг Томас Манн Петер Стормаре ...
Описание: Едва не погибнув в лапах ужасной ведьмы, Гензель и Гретель стали только сильнее. Одержимые местью, они ведут отчаянную борьбу со злом, даже не подозревая, что их поджидает нечто куда более опасное… собственное прошлое…

Перевод: Профессиональный (Полное Дублирование) Чистый Звук
Субтитры: Отсутствуют

Формат: DVD5, DVD Video, MPEG2, AC3
Видео: 720х480 (NTSC 16:9), MPEG2 Video, 23.976 fps, ~ 4543 kbps avg, 0.548 bit/pixel
Аудио: Русский:48 kHz, AC3, 6 ch, 448 kbps [Профессиональный (Полное Дублирование)]
Доп. информация:

Общее
Полное имя: D:\Downloads\Охотники на Ведьм\VIDEO_TS\VTS_01_1.VOB
Формат: MPEG-PS
Размер файла: 1024 Мбайт
Продолжительность: 28 м.
Общий поток: 5092 Кбит/сек
Видео
Идентификатор: 224 (0xE0)
Формат: MPEG Video
Версия формата: Version 2
Профиль формата: Main@Main
Параметр BVOP формата: Да
Параметр матрицы формата: По умолчанию
Продолжительность: 28 м.
Вид битрейта: Переменный
Битрейт: 4543 Кбит/сек
Номинальный битрейт: 9800 Кбит/сек
Ширина: 720 пикс.
Высота: 480 пикс.
Соотношение сторон: 16:9
Частота кадров: 23,976 кадр/сек
Стандарт вещания: NTSC
Цветовое пространство: YUV
Подвыборка цветности: 4:2:0
Битовая глубина: 8 бит
Тип развёртки: Прогрессивная
Порядок развёртки: 2:3 Pulldown
Метод сжатия: С потерями
Бит/(Пиксели*Кадры): 0.548
Размер потока: 914 Мбайт (89%)
Аудио
Идентификатор: 189 (0xBD)-128 (0x80)
Формат: AC-3
Формат/Информация: Audio Coding 3
Расширение режима: CM (complete main)
Режим смешивания: DVD-Video
Продолжительность: 28 м.
Вид битрейта: Постоянный
Битрейт: 448 Кбит/сек
Каналы: 6 каналов
Расположение каналов: Front: L C R, Side: L R, LFE
Частота: 48,0 КГц
Битовая глубина: 16 бит
Метод сжатия: С потерями
Размер потока: 90,1 Мбайт (9%)









реклама партнёра


Вернуться к началу
 Профиль  
 
   Похожие торренты   Автор   Торрент   Размер 
В этой теме нет новых непрочитанных сообщений. Последний охотник на ведьм / The Last Witch Hunter [фэнтези, боевик, приключения, 2015] DVD5, Dub+Sub

salma3

130 | 42

4.38 ГБ

В этой теме нет новых непрочитанных сообщений. Гензель против Гретель / Hansel Vs. Gretel [ужасы, 2015] WEB-DLRip, Avo

salma3

307 | 10

1.37 ГБ

В этой теме нет новых непрочитанных сообщений. Гензель против Гретель / Hansel Vs. Gretel [ужасы, 2015] WEB-DL 720p, Avo

salma3

36 | 4

2.8 ГБ

В этой теме нет новых непрочитанных сообщений. Последний охотник на ведьм / The Last Witch Hunter [фэнтези, боевик, приключения, 2015] HDRip, Dub [iTunes]

Dracon

1449 | 34

1.37 ГБ

В этой теме нет новых непрочитанных сообщений. Последний охотник на ведьм / The Last Witch Hunter [фэнтези, боевик, приключения, 2015] BDRip, Dub [Лицензия]

salma3

211 | 34

2.18 ГБ

В этой теме нет новых непрочитанных сообщений. Последний охотник на ведьм / The Last Witch Hunter [фэнтези, боевик, приключения, 2015] BDRip, Avo [Гаврилов]

salma3

115 | 8

1.46 ГБ

В этой теме нет новых непрочитанных сообщений. Последний охотник на ведьм / The Last Witch Hunter [фэнтези, боевик, приключения, 2015] HDRip, Dub [iTunes]

Dracon

248 | 6

2.05 ГБ


СообщениеДобавлено: 11 май 2013, 19:02 

Не в сети
Дата регистрации:
02 май 2013, 21:59
Спасибо: 0 / 0
Сообщения: 53
дю са лей будет в таком формате


Вернуться к началу
 Профиль Отправить личное сообщение  
 

СообщениеДобавлено: 11 май 2013, 20:37 

Не в сети
Зам. Админа
Аватара пользователя
Дата регистрации:
02 дек 2010, 12:39
Спасибо: 12623 / 214
Сообщения: 28012
kirill76 писал(а):
дю са лей будет в таком формате

Может где то и есть...но я его ни где не наблюдаю...ищи в другом месте...


Вернуться к началу
 Профиль  
 

СообщениеДобавлено: 13 май 2013, 21:40 

Не в сети
Дата регистрации:
02 май 2013, 21:59
Спасибо: 0 / 0
Сообщения: 53
а хоббит dvd-5 ,будет


Вернуться к началу
 Профиль Отправить личное сообщение  
 

СообщениеДобавлено: 13 май 2013, 21:48 

Не в сети
Зам. Админа
Аватара пользователя
Дата регистрации:
02 дек 2010, 12:39
Спасибо: 12623 / 214
Сообщения: 28012
kirill76 писал(а):
а хоббит dvd-5 ,будет

viewtopic.php?f=53&t=153634


Вернуться к началу
 Профиль  
 
Начать новую тему Ответить на тему  [ Сообщений: 5 ] 




Для Мосгорсуда, Роскомнадзора и рекламодателей:: mosgorsud-torrent[собачка]yandex.ru