Торрент файл
скачать торрент магнет ссылка Добавлен: 01 май 2013, 16:07
Размер: 4.1 ГБ
Сидеров: 3
Личеров: 4
Автор

СообщениеДобавлено: 01 май 2013, 16:07 

Не в сети
Супермодератор
Аватара пользователя
Дата регистрации:
15 фев 2012, 16:44
Возраст: 28
Спасибо: 7165 / 2147
Сообщения: 61900

Стальная граница / Steel frontier

Год выхода: 1995
Жанр: боевик, фантастика
Режиссер: Пол Дж. Волк
В ролях: Джо Лара, Бо Свенсон, Стэйси Фостер, Брайон Джеймс, Кэйн Ходдер, Джеймс С. Виктор, Билли Л. Салливан, Брайан Хукиба, Джим Коуди Уильямс, Роберт О’Рейли, Джекобсен Харт, Адольфо Киньонес, Брюс Эд Морроу, Сандра Эллис Лэфферти
О фильме: Постапокалиптическое будущее. Мир, каким мы его знали, был уничтожен. Ничего не хватает. Радиация. Мутанты. Колония выживших выстраивают новую жизнь. Их колония называется Новая Надежда, место, где отчаяние превратилось в надежду. Группа бывших солдат, возглавляемая генералом Куантрелом, пересекает пустыню и захватывает Новую Надежду силой. Они убьют любого, кто не присоединится к ним, и возьмут всех женщин в рабство. И тут в городе появляется одинокий воин. По имени Юма...



Страна: США
Студия: PM Entertainment Group Inc.
Продолжительность: 01:37:11
Перевод: Авторский [одноголосый]

Файл
Кодек: MPEG-2
Качество: DVD-5
Видео: NTSC 4:3 (720x480) VBR
Звук: Русский, английский (Dolby AC3, 2 ch)


Title:
Size: 4.10 Gb ( 4 297 206 KBytes ) - DVD-5
Enabled regions: 1, 2, 3, 4, 5, 6, 7, 8

VTS_01 :
Play Length: 00:00:21+01:41:04+00:02:08+00:03:04+00:02:54+00:02:42+00:02:05+00:03:19+00:02:18+00:02:44+00:02:28+00:02:17+00:02:21+00:32:39
Video: NTSC 4:3 (720x480) VBR
Audio:
English (Dolby AC3, 2 ch)
Russian (Dolby AC3, 2 ch)

Menu Video:
NTSC 4:3 (720x480) VBR
Auto Pan&Scan, Auto Letterboxed
Menu English Language Unit :
Root Menu
Общее
Полное имя: D:1АААSteel FrontirsVIDEO_TSVTS_01_1.VOB
Формат: MPEG-PS
Размер файла: 1024 Мбайт
Продолжительность: 2 м. 19 с.
Режим общего битрейта: Переменный
Общий поток: 61,7 Мбит/сек

Видео
Идентификатор: 224 (0xE0)
Формат: MPEG Video
Версия формата: Version 2
Профиль формата: Main@Main
Параметр BVOP формата: Да
Параметр матрицы формата: Выборочная
Параметр GOP формата: Variable
Продолжительность: 2 м. 19 с.
Вид битрейта: Переменный
Битрейт: 60,1 Мбит/сек
Ширина: 720 пикселей
Высота: 480 пикселей
Соотношение сторон: 4:3
Частота кадров: 29,970 кадров/сек
Стандарт вещания: NTSC
Цветовое пространство: YUV
Субдискретизация насыщенности: 4:2:0
Битовая глубина: 8 бит
Тип развёртки: Чересстрочная
Порядок развёртки: Верхнее поле первое
Метод сжатия: С потерями
Бит/(Пиксели*Кадры): 5.806
TimeCode_FirstFrame: 01:26:59;28
TimeCode_Source: Group of pictures header
Размер потока: 997 Мбайт (97%)

Аудио #1
Идентификатор: 189 (0xBD)-128 (0x80)
Формат: AC-3
Формат/Информация: Audio Coding 3
Расширение режима: CM (complete main)
Параметр Endianness формата: Big
Режим смешивания: DVD-Video
Продолжительность: 7 с. 360 мс.
Вид битрейта: Постоянный
Битрейт: 192 Кбит/сек
Каналы: 2 канала
Расположение каналов: Front: L R
Частота: 48,0 КГц
Битовая глубина: 16 бит
Метод сжатия: С потерями
Размер потока: 173 Кбайт (0%)

Аудио #2
Идентификатор: 189 (0xBD)-129 (0x81)
Формат: AC-3
Формат/Информация: Audio Coding 3
Расширение режима: CM (complete main)
Параметр Endianness формата: Big
Режим смешивания: DVD-Video
Продолжительность: 7 с. 360 мс.
Вид битрейта: Постоянный
Битрейт: 192 Кбит/сек
Каналы: 2 канала
Расположение каналов: Front: L R
Частота: 48,0 КГц
Битовая глубина: 16 бит
Метод сжатия: С потерями
Размер потока: 173 Кбайт (0%)

Меню



Вернуться к началу
 Профиль Отправить личное сообщение  
 
   Похожие торренты   Автор   Торрент   Размер 
В этой теме нет новых непрочитанных сообщений. Граница / Frontier [S01] [Приключения, 2016] HDTVRip, Mvo [NewStudio]

salma3

156 | 103

5.21 ГБ

В этой теме нет новых непрочитанных сообщений. Последняя граница / The Last Frontier [вестерн, история, 1955] HDRip, Avo

salma3

26 | 8

1.45 ГБ

В этой теме нет новых непрочитанных сообщений. Граница / The Frontier [Триллер, драма, криминал, 2015] HDRip, Mvo

salma3

385 | 95

1.37 ГБ

В этой теме нет новых непрочитанных сообщений. Граница / Frontier [S02] [Историческая драма, приключения, 2017] WEBRip, Mvo [Jaskier]

salma3

44 | 22

3.52 ГБ

В этой теме нет новых непрочитанных сообщений. Граница / Frontier [S01-02] [Приключения, драма, исторический, 2016-2017] HDTVRip, Mvo [NewStudio]

salma3

0 | 0

8.89 ГБ

В этой теме нет новых непрочитанных сообщений. Граница / Frontier [S02] [Историческая драма, приключения, 2017] WEBRip 720p, Mvo [Jaskier]

salma3

38 | 19

7.71 ГБ

В этой теме нет новых непрочитанных сообщений. Граница / Frontier [S02] [Историческая драма, приключения, 2017] WEBRip 1080p, Mvo [Jaskier]

salma3

40 | 19

9.46 ГБ


Начать новую тему Ответить на тему  [ 1 сообщение ] 




Для Мосгорсуда, Роскомнадзора и рекламодателей:: mosgorsud-torrent[собачка]yandex.ru
cron