Торрент файл
скачать торрент магнет ссылка Добавлен: 07 апр 2013, 17:00
Размер: 4.02 ГБ
Сидеров: 0
Личеров: 2
Автор

СообщениеДобавлено: 07 апр 2013, 17:00 

В сети
Супермодератор
Аватара пользователя
Дата регистрации:
15 фев 2012, 16:44
Возраст: 28
Спасибо: 6593 / 2145
Сообщения: 44203

Гость / The Caller

Год выхода: 2011
Жанр:ужасы, триллер, детектив
Режиссер: Мэттью Паркхилл
В ролях: Стивен Мойер, Рашель Лефевр, Луис Гузман, Эд Куинн, Лорна Рэвер, Мариса Альварес, Брайан Тестер, Корделия Гонзалез, Грэйс Коннелли

О фильме:
Переживания после развода для Мэри Ки усугубляются чередой странных звонков от таинственного незнакомца. Скоро ей начинает чудиться, что некто проникает в дом без ее ведома. Но самое ужасное происходит, когда Мэри понимает, что этот некто звонит из прошлого…



Выпущено: Великобритания, Пуэрто Рико / Alcove Entertainment, Pimienta, Salt Company International
Продолжительность: 01:31:26
Перевод: Профессиональный [многоголосый] [Лицензия]

Файл
Качество: DVD-5
Видео: PAL 16:9 (720х576@1024x576) VBR
Аудио: Русский (Dolby AC3, 6 ch)



Title: Gost.2011.nnm.DVD5
Size: 4.02 Gb ( 4 216 988,00 KBytes ) - DVD-5
Enabled regions: 1, 2, 3, 4, 5, 6, 7, 8

VTS_01 :
Play Length: 00:00:10
Video: PAL 4:3 (720x576) VBR
Audio:
Russian (Dolby AC3, 2 ch)

VTS_02 :
Play Length: 01:28:07
Video: PAL 16:9 (720x576) VBR, Auto Letterboxed
Audio:
Russian (Dolby AC3, 6 ch)

Общее
Полное имя : I:KinoГость (2011) DVD5Gost.2011.nnm.DVD5VIDEO_TSVTS_02_2.VOB
Формат : MPEG-PS
Размер файла : 1024 Мбайт
Продолжительность : 22 м.
Режим общего битрейта : Переменный
Общий поток : 6362 Кбит/сек

Видео
Идентификатор : 224 (0xE0)
Формат : MPEG Video
Версия формата : Version 2
Профиль формата : Main@Main
Параметр BVOP формата : Да
Параметр матрицы формата : Выборочная
Параметр GOP формата : M=3, N=15
Продолжительность : 22 м.
Вид битрейта : Переменный
Битрейт : 5788 Кбит/сек
Максимальный битрейт : 9000 Кбит/сек
Ширина : 720 пикселей
Высота : 576 пикселей
Соотношение сторон : 16:9
Частота кадров : 25,000 кадров/сек
Стандарт вещания : PAL
Цветовое пространство : YUV
Субдискретизация насыщенности : 4:2:0
Битовая глубина : 8 бит
Тип развёртки : Чересстрочная
Порядок развёртки : Верхнее поле первое
Метод сжатия : С потерями
Бит/(Пиксели*Кадры) : 0.558
Размер потока : 931 Мбайт (91%)

Аудио
Идентификатор : 189 (0xBD)-128 (0x80)
Формат : AC-3
Формат/Информация : Audio Coding 3
Расширение режима : CM (complete main)
Режим смешивания : DVD-Video
Продолжительность : 22 м.
Вид битрейта : Постоянный
Битрейт : 448 Кбит/сек
Каналы : 6 каналов
Расположение каналов : Front: L C R, Side: L R, LFE
Частота : 48,0 КГц
Битовая глубина : 16 бит
Метод сжатия : С потерями
Задержка видео : -328 мс.
Размер потока : 72,1 Мбайт (7%)

Меню




Релиз:




реклама партнёра


Вернуться к началу
 Профиль Отправить личное сообщение  
 
   Похожие торренты   Автор   Торрент   Размер 
В этой теме нет новых непрочитанных сообщений. Незваный гость / Intruder [ужасы, триллер, 1989] BDRip, Avo

salma3

60 | 31

1.46 ГБ

В этой теме нет новых непрочитанных сообщений. Гость / The Guest [Боевик, триллер, детектив, 2014] HDRip, dvo

Dracon

80 | 3

1.36 ГБ

В этой теме нет новых непрочитанных сообщений. Невидимый гость / Contratiempo [триллер, криминал, детектив, 2016] WEBDLRip, Avo

salma3

153 | 61

1.36 ГБ

В этой теме нет новых непрочитанных сообщений. Ночной гость / Night Visitor [ужасы, триллер, комедия, 1989] DVDRip, Avo

salma3

45 | 15

1.45 ГБ

В этой теме нет новых непрочитанных сообщений. Гость / The Guest [Боевик, триллер, детектив, 2014] HDRip [Алексей Матвеев]

Dracon

6 | 2

1.46 ГБ

В этой теме нет новых непрочитанных сообщений. Невидимый гость / Contratiempo [триллер, криминал, детектив, 2016] BDRip 1080p, Mvo

salma3

2503 | 620

7.62 ГБ

В этой теме нет новых непрочитанных сообщений. Невидимый гость / Contratiempo [триллер, криминал, детектив, 2016] BDRip 720p, Mvo

salma3

2482 | 229

4.18 ГБ


Начать новую тему Ответить на тему  [ 1 сообщение ] 




Для Мосгорсуда, Роскомнадзора и рекламодателей:: mosgorsud-torrent[собачка]yandex.ru