Торрент файл
скачать торрент магнет ссылка Добавлен: 05 апр 2013, 23:44
Размер: 4.2 ГБ
Сидеров: 6
Личеров: 3
Автор

СообщениеДобавлено: 05 апр 2013, 23:44 

Не в сети
Супермодератор
Аватара пользователя
Дата регистрации:
15 фев 2012, 16:44
Возраст: 27
Спасибо: 5121 / 2089
Сообщения: 17282

Квартирант / L'Incruste

Год выхода: 2004
Жанр: Комедия
Режиссер: Александр Кастаньетти, Корентен Джулиус
В ролях: Титофф, Фредерик Дифенталь, Зоэ Феликс, Аньес Сораль, Зинедин Суалем, Федор Аткин, Патрик Милле, Филипп Мэймат, Саша Бурдо, Брижитт Бемоль, Стефан Дебак, Гвендолин Амон, Виктор Эстевес, Фредерик Бель, Ману Лайотт, Элиэн Боери, Жак Эрлен, Даниэль Билальян, Карим Акриш, Ян Сиптро, Кэролайн Банда, Фабрис Флобину

О фильме:Пол бездомный бродяга и плут, привык скитаться по квартирам знакомых и жить за их счет. Поселившись в очередном доме, он превращает в чудовищный хаос размеренную жизнь своего соседа. Пол бесшабашный врунишка — втягивает Александра в череду невероятных приключений и нелепых авантюр. Но никто не прощает лжи, и последний друг отвернулся от Пола. Всеми покинутый, Пол клянется исправиться и начать новую жизнь. Но надолго ли его хватит? Ведь у этого хитреца в рукаве еще много сюрпризов…

Страна: Франция
Студия: Canal+ [fr], Fechner Audiovisuel, France 2 Cinema, Les Films Christian Fechner, Zagzig Productions
Продолжительность: 01:26:00
Перевод: Дублированный



Файл
Кодек: MPEG-2
Качество: DVD-5
Видео: PAL 16:9 (720x576) VBR
Звук: Русский (Dolby AC3, 6 ch), французский (Dolby AC3, 6 ch)

Title: Локальный диск
Size: 4.20 Gb ( 4 408 198 KBytes ) - DVD-5
Enabled regions: 1, 2, 3, 4, 5, 6, 7, 8

VTS_01 :
Play Length: 00:00:10
Video: PAL 4:3 (720x576) VBR

VTS_02 :
Play Length: 01:26:00
Video: PAL 16:9 (720x576) VBR, Auto Pan&Scan
Audio:
Russian (Dolby AC3, 6 ch)
Francais (Dolby AC3, 6 ch)

Menu Video:
PAL 4:3 (720x576) VBR
Menu Subtitles:
Not specified
Menu English Language Unit :
Root Menu


Общее
Полное имя: D:РаздачиKvartirantVIDEO_TSVTS_02_1.VOB
Формат: MPEG-PS
Размер файла: 1024 Мбайт
Продолжительность: 20 м.
Режим общего битрейта: Переменный
Общий поток: 6973 Кбит/сек

Видео
Идентификатор: 224 (0xE0)
Формат: MPEG Video
Версия формата: Version 2
Профиль формата: Main@Main
Параметр BVOP формата: Да
Параметр матрицы формата: По умолчанию
Параметр GOP формата: M=3, N=15
Продолжительность: 20 м.
Вид битрейта: Переменный
Битрейт: 6067 Кбит/сек
Максимальный битрейт: 8500 Кбит/сек
Ширина: 720 пикселей
Высота: 576 пикселей
Соотношение сторон: 2,40:1
Частота кадров: 25,000 кадров/сек
Стандарт вещания: PAL
Цветовое пространство: YUV
Субдискретизация насыщенности: 4:2:0
Битовая глубина: 8 бит
Тип развёртки: Чересстрочная
Порядок развёртки: Верхнее поле первое
Метод сжатия: С потерями
Бит/(Пиксели*Кадры): 0.585
TimeCode_FirstFrame: 00:00:00:00
TimeCode_Source: Group of pictures header
Размер потока: 891 Мбайт (87%)

Аудио #1
Идентификатор: 189 (0xBD)-128 (0x80)
Формат: AC-3
Формат/Информация: Audio Coding 3
Расширение режима: CM (complete main)
Параметр Endianness формата: Big
Режим смешивания: DVD-Video
Продолжительность: 20 м.
Вид битрейта: Постоянный
Битрейт: 384 Кбит/сек
Каналы: 6 каналов
Расположение каналов: Front: L C R, Side: L R, LFE
Частота: 48,0 КГц
Битовая глубина: 16 бит
Метод сжатия: С потерями
Задержка видео: -80 мс.
Размер потока: 56,4 Мбайт (6%)

Аудио #2
Идентификатор: 189 (0xBD)-129 (0x81)
Формат: AC-3
Формат/Информация: Audio Coding 3
Расширение режима: CM (complete main)
Параметр Endianness формата: Big
Режим смешивания: DVD-Video
Продолжительность: 20 м.
Вид битрейта: Постоянный
Битрейт: 384 Кбит/сек
Каналы: 6 каналов
Расположение каналов: Front: L C R, Side: L R, LFE
Частота: 48,0 КГц
Битовая глубина: 16 бит
Метод сжатия: С потерями
Задержка видео: -80 мс.
Размер потока: 56,4 Мбайт (6%)

Меню






реклама партнёра


Вернуться к началу
 Профиль Отправить личное сообщение  
 
   Похожие торренты   Автор   Торрент   Размер 
В этой теме нет новых непрочитанных сообщений. Из 13 в 30 / 13 Going on 30 [Комедия, мелодрама, 2004] DVD5, Mvo

salma3

7 | 0

4.33 ГБ

В этой теме нет новых непрочитанных сообщений. Коробка / Le carton [комедия, 2004] DVDRip, Dub

salma3

18 | 4

1.37 ГБ

В этой теме нет новых непрочитанных сообщений. Сексуальная революция / Pornorama [комедия, 2004] DVDRip, Mvo

salma3

72 | 7

1.37 ГБ

В этой теме нет новых непрочитанных сообщений. Коробка / Le carton [комедия, 2004] DVD5, Dub [Лицензия]

salma3

9 | 4

3.51 ГБ

В этой теме нет новых непрочитанных сообщений. Профессионалы / San Antonio [комедия, 2004] HDTV 1080i, Dub+Sub

salma3

75 | 8

4.5 ГБ

В этой теме нет новых непрочитанных сообщений. Шпионки / D.E.B.S. [Боевик, Комедия, Мелодрама, 2004] DVDRip, Mvo

salma3

2 | 2

1.37 ГБ

В этой теме нет новых непрочитанных сообщений. Евротур / EuroTrip [Комедия, приключения, 2004] BDRip, Dub [КПК]

salma3

22 | 3

578 МБ


Начать новую тему Ответить на тему  [ 1 сообщение ] 




Для Мосгорсуда, Роскомнадзора и рекламодателей:: mosgorsud-torrent[собачка]yandex.ru