Торрент файл
скачать торрент магнет ссылка Добавлен: 10 мар 2013, 09:45
Размер: 7.03 ГБ
Сидеров: 61
Личеров: 15
Автор

СообщениеДобавлено: 10 мар 2013, 09:45 

Не в сети
Зам. Админа
Аватара пользователя
Дата регистрации:
02 дек 2010, 12:39
Спасибо: 12461 / 214
Сообщения: 27968

Год выхода: 2012
Жанр: Боевик, комедия, криминал
Режиссер: Бэрри Баттлс
В ролях: Андре Брогер, Клейн Кроуфорд, Дэниэл Кадмор, Трэвис Фиммел, Ева Лонгория, Пол Уэсли, Билли Боб Торнтон, Томас Броди Сэнгстер, Натали Мартинез, Зои Белл
О фильме:
События развернутся вокруг трех братьев, которые всегда любили конфликты и хорошо подраться. Их нанимают для того, чтобы вернуть одной бабушке похищенного паренька-инвалида. Парни входят во вкус и проливают реки чужой крови, в основном похитителей.

Детям до 17 лет просмотр фильма не рекомендуется

присутствует ненормативная лексика



Страна: США, Lleuju Productions
Продолжительность: 01:34:44
Перевод: Любительский многоголосый (ViruseProject) / Любительский двухголосый (den904 & DeadS)

Кодек: MPEG-2
Качество: DVD-9
Видео: PAL 16:9 (720x576) VBR
Звук: Русский, английский (Dolby AC3, 6 ch)
Субтитры: Русские, английские

Релиз группы NovaLan
Автор релиза Sergei7721




Полное имя: C:UsersСергейDownloadsРаздачиThe.Baytown.Outlaws.2012.DVD9.NovaLanVIDEO_TSVTS_01_1.VOB
Формат: MPEG-PS
Размер файла: 1024 Мбайт
Продолжительность: 14 м.
Режим общего битрейта: Переменный
Общий поток: 9956 Кбит/сек

Видео
Идентификатор: 224 (0xE0)
Формат: MPEG Video
Версия формата: Version 2
Профиль формата: Main@Main
Параметр BVOP формата: Да
Параметр матрицы формата: Выборочная
Продолжительность: 14 м.
Вид битрейта: Переменный
Битрейт: 8414 Кбит/сек
Максимальный битрейт: 8500 Кбит/сек
Ширина: 720 пикселей
Высота: 576 пикселей
Соотношение сторон: 16:9
Частота кадров: 25,000 кадров/сек
Стандарт вещания: PAL
Цветовое пространство: YUV
Субдискретизация насыщенности: 4:2:0
Битовая глубина: 8 бит
Тип развёртки: Чересстрочная
Порядок развёртки: Верхнее поле первое
Метод сжатия: С потерями
Бит/(Пиксели*Кадры): 0.812
Размер потока: 865 Мбайт (85%)

Аудио #1
Идентификатор: 189 (0xBD)-128 (0x80)
Формат: AC-3
Формат/Информация: Audio Coding 3
Расширение режима: CM (complete main)
Параметр Endianness формата: Big
Режим смешивания: DVD-Video
Продолжительность: 14 м.
Вид битрейта: Постоянный
Битрейт: 448 Кбит/сек
Каналы: 6 каналов
Расположение каналов: Front: L C R, Side: L R, LFE
Частота: 48,0 КГц
Битовая глубина: 16 бит
Метод сжатия: С потерями
Размер потока: 46,1 Мбайт (4%)

Аудио #2
Идентификатор: 189 (0xBD)-129 (0x81)
Формат: AC-3
Формат/Информация: Audio Coding 3
Расширение режима: CM (complete main)
Параметр Endianness формата: Big
Режим смешивания: DVD-Video
Продолжительность: 14 м.
Вид битрейта: Постоянный
Битрейт: 448 Кбит/сек
Каналы: 6 каналов
Расположение каналов: Front: L C R, Side: L R, LFE
Частота: 48,0 КГц
Битовая глубина: 16 бит
Метод сжатия: С потерями
Размер потока: 46,1 Мбайт (4%)

Аудио #3
Идентификатор: 189 (0xBD)-130 (0x82)
Формат: AC-3
Формат/Информация: Audio Coding 3
Расширение режима: CM (complete main)
Параметр Endianness формата: Big
Режим смешивания: DVD-Video
Продолжительность: 14 м.
Вид битрейта: Постоянный
Битрейт: 448 Кбит/сек
Каналы: 6 каналов
Расположение каналов: Front: L C R, Side: L R, LFE
Частота: 48,0 КГц
Битовая глубина: 16 бит
Метод сжатия: С потерями
Размер потока: 46,1 Мбайт (4%)

Текст #1
Идентификатор: 189 (0xBD)-32 (0x20)
Формат: RLE
Формат/Информация: Run-length encoding
Режим смешивания: DVD-Video

Текст #2
Идентификатор: 189 (0xBD)-33 (0x21)
Формат: RLE
Формат/Информация: Run-length encoding
Режим смешивания: DVD-Video






Релиз от:




реклама партнёра


Вернуться к началу
 Профиль  
 
   Похожие торренты   Автор   Торрент   Размер 
В этой теме нет новых непрочитанных сообщений. Бэйтаун вне закона / The Baytown Outlaws [триллер, драма, 2012] DVD5, Mvo [лицензия]

salma3

13 | 2

4.07 ГБ

В этой теме нет новых непрочитанных сообщений. The Outlaws - It's About Pride [2012, Classic, Southern Rock, MP3]

PriZraK

0 | 1

131.53 МБ

В этой теме нет новых непрочитанных сообщений. Мачо и ботан 2 / 22 Jump Street [боевик, комедия, криминал, 2014] DVD9, Dub+Sub [лицензия]

Dracon

41 | 2

6.5 ГБ

В этой теме нет новых непрочитанных сообщений. РобоКоп / RoboCop [фантастика, боевик, криминал, 2014] DVD9, Dub+Sub [лицензия]

salma3

91 | 5

6.28 ГБ

В этой теме нет новых непрочитанных сообщений. Мачо и ботан / 21 Jump Street [боевик, комедия, криминал, 2012] HDRip, Dub [iPad]

salma3

18 | 2

1.47 ГБ

В этой теме нет новых непрочитанных сообщений. Изгои / Outsiders [1 сезон: 1-12 серия из 13] [Драма, 2016] WEB-DLRip [NewStudio]

Dracon

85 | 90

6.46 ГБ

В этой теме нет новых непрочитанных сообщений. The Outlaws - Dreams Of The West [1993, Rock, Beat, MP3]

PriZraK

5 | 2

60.52 МБ


Начать новую тему Ответить на тему  [ 1 сообщение ] 




Для Мосгорсуда, Роскомнадзора и рекламодателей:: mosgorsud-torrent[собачка]yandex.ru