Торрент файл
скачать торрент магнет ссылка Добавлен: 17 фев 2013, 00:48
Размер: 4.33 ГБ
Сидеров: 16
Личеров: 7
Автор

СообщениеДобавлено: 17 фев 2013, 00:48 

В сети
Супермодератор
Аватара пользователя
Дата регистрации:
15 фев 2012, 16:44
Возраст: 28
Спасибо: 6594 / 2145
Сообщения: 44279

Американский пирог: Музыкальный лагерь / American Pie Presents Band Camp

Год выхода: 2005
Жанр: комедия
Режиссер: Стив Рэш
В ролях: Юджин Леви, Тэд Хилдженбринк, Ариэль Кеббел, Джейсон Ерлс, Кристл Лайтнинг, Джан Хи Ли, Мэтт Барр, Крис Оуэн, Лоурен С. Мэйхью, Анджела Литтл

О фильме:
На этот раз все крутится вокруг Мэта Стифлера, младшего брата Стива. Мэт отправляется в летний лагерь, где отрывается по полной. Папа Джима вновь появляется в роли мудрого наставника, который пытается помочь младшему брату Стифлера вернуться на путь истинный. Поначалу Мэт обвешал весь лагерь скрытыми камерами, чтобы снять то, чем озабоченные ученики занимаются летом, вдали от родительского взгляда. Но камеры отошли на задний план, когда случилось непоправимое... Он влюбился в неотразимую Элис...




Страна: США
Продолжительность: 01:27:18
Перевод: Профессиональный (дублированный)

Файл
Кодек: MPEG2
Качество: DVD5
Видео: PAL 16:9 (720x576) VBR 6352, 25000 кадров/сек
Звук:
Аудио 1: English (Dolby AC3, 6 ch) 384 Kbps
Аудио 2: Russian (Dolby AC3, 6 ch) 384 Kbps
Субтитры: русские (форсированные на надписи)
При помощи DVD Remake Pro удалены заставки,предупреждения,реклама,доп.материалы,DTS-дорожка
Меню переведено в статику,навигация сохранена,нерабочие кнопки затерты и заблокированы
Сжималось связкой DVD Rebuilder + CCE/Procoder в 9 проходов. Общее сжатие - 8,6 %.

Общее
Полное имя: D:ТорентыАмериканский пирог 4American Pie Presents Band Camp DVD5VIDEO_TSVTS_01_1.VOB
Формат: MPEG-PS
Размер файла: 1024 Мбайт
Продолжительность: 19 м.
Режим общего битрейта: Переменный
Общий поток: 7265 Кбит/сек

Видео
Идентификатор: 224 (0xE0)
Формат: MPEG Video
Версия формата: Version 2
Профиль формата: Main@Main
Параметр BVOP формата: Да
Параметр матрицы формата: Выборочная
Параметр GOP формата: M=3, N=12
Продолжительность: 19 м.
Вид битрейта: Переменный
Битрейт: 6352 Кбит/сек
Максимальный битрейт: 7707 Кбит/сек
Ширина: 720 пикселей
Высота: 576 пикселей
Соотношение сторон: 16:9
Частота кадров: 25,000 кадров/сек
Стандарт вещания: PAL
Цветовое пространство: YUV
Субдискретизация насыщенности: 4:2:0
Битовая глубина: 8 бит
Тип развёртки: Чересстрочная
Порядок развёртки: Верхнее поле первое
Метод сжатия: С потерями
Бит/(Пиксели*Кадры): 0.613
Размер потока: 895 Мбайт (87%)

Аудио #1
Идентификатор: 189 (0xBD)-128 (0x80)
Формат: AC-3
Формат/Информация: Audio Coding 3
Расширение режима: CM (complete main)
Параметр Endianness формата: Big
Режим смешивания: DVD-Video
Продолжительность: 19 м.
Вид битрейта: Постоянный
Битрейт: 384 Кбит/сек
Каналы: 6 каналов
Расположение каналов: Front: L C R, Side: L R, LFE
Частота: 48,0 КГц
Битовая глубина: 16 бит
Метод сжатия: С потерями
Размер потока: 54,1 Мбайт (5%)

Аудио #2
Идентификатор: 189 (0xBD)-130 (0x82)
Формат: AC-3
Формат/Информация: Audio Coding 3
Расширение режима: CM (complete main)
Параметр Endianness формата: Big
Режим смешивания: DVD-Video
Продолжительность: 19 м.
Вид битрейта: Постоянный
Битрейт: 384 Кбит/сек
Каналы: 6 каналов
Расположение каналов: Front: L C R, Side: L R, LFE
Частота: 48,0 КГц
Битовая глубина: 16 бит
Метод сжатия: С потерями
Размер потока: 54,1 Мбайт (5%)

Текст
Идентификатор: 189 (0xBD)-32 (0x20)
Формат: RLE
Формат/Информация: Run-length encoding
Режим смешивания: DVD-Video

Меню





реклама партнёра


Вернуться к началу
 Профиль Отправить личное сообщение  
 
   Похожие торренты   Автор   Торрент   Размер 
В этой теме нет новых непрочитанных сообщений. Лагерь девушек-болельщиц / Cheerleader Camp [ужасы, триллер, комедия, 1988] DVD5, Avo

salma3

84 | 29

4.21 ГБ

В этой теме нет новых непрочитанных сообщений. Танцевальный лагерь / Dance Camp (драма, комедия, 2016) WEB-DLRip | L2

marya111

0 | 0

1.36 ГБ

В этой теме нет новых непрочитанных сообщений. Танцевальный лагерь / Dance Camp [драма, комедия, 2016] WEBDLRip, Dvo

salma3

16 | 37

1.36 ГБ

В этой теме нет новых непрочитанных сообщений. Затерянный лагерь / Camp Nowhere [комедия, приключения, 1994] BDRip 720p, Mvo

salma3

100 | 6

3.14 ГБ

В этой теме нет новых непрочитанных сообщений. Кровавый библейский лагерь / Bloody Bloody Bible Camp [ужасы, комедия, 2012] WEB-DL 720p, Dvo

salma3

29 | 6

2.65 ГБ

В этой теме нет новых непрочитанных сообщений. Кровавый библейский лагерь / Bloody Bloody Bible Camp [ужасы, комедия, 2012] WEB-DLRip, Dvo

salma3

49 | 5

1.37 ГБ

В этой теме нет новых непрочитанных сообщений. Летний лагерь / Summer Camp [Ужасы, 2015] HDRip, Dvo

salma3

22 | 2

1.45 ГБ


Начать новую тему Ответить на тему  [ 1 сообщение ] 




Для Мосгорсуда, Роскомнадзора и рекламодателей:: mosgorsud-torrent[собачка]yandex.ru