Торрент файл
скачать торрент магнет ссылка Добавлен: 14 фев 2013, 16:21
Размер: 5.16 ГБ
Сидеров: 1
Личеров: 2
Автор

СообщениеДобавлено: 14 фев 2013, 16:21 

В сети
Супермодератор
Аватара пользователя
Дата регистрации:
15 фев 2012, 16:44
Возраст: 27
Спасибо: 5139 / 2089
Сообщения: 17415

Информация о фильме
Название: Конец света
Оригинальное название: Fin
Год выхода: 2012
Жанр:триллер
Режиссер: Хорхе Торрегросса
В ролях: Микель Фернандез, Антонио Гарридо, Даниель Грао, Клара Лаго, Эудженио Мира, Бланка Ромеро, Кармен Руис, Андрес Веленкозо, Марибель Верду

О фильме:
Друзья собираются вместе провести выходные в горной хижине. Однако странное явление полностью меняет планы, оставляя их без связи с внешним миром. По дороге за помощью они отдаляются друг от друга, так как происходящее вокруг оказывает на них сильное влияние.



Выпущено: Испания / Mod Producciones, Apaches Entertainment, Antena 3 Films
Продолжительность: 01:29:07
Озвучивание: Профессиональное (многоголосое) [лицензия]
Субтитры: Русские


Релиз группы:


Качество:DVD9 R5
Формат: DVD-Video
Видео кодек: MPEG2
Аудио кодек: AC3
Видео: PAL 16:9 (720x576(0.592)) MPEG Video, 25,000 кадр/сек, 6139 Кбит/сек
Аудио #1: Russian (Dolby AC3, 6 ch) 448 Кбит/сек, 48,0 КГц
Аудио #2: Espanol (Dolby AC3, 6 ch) 448 Кбит/сек, 48,0 КГц



Title: Konec.sveta.2012.DVD9
Size: 5.16 Gb ( 5 409 070,00 KBytes ) - DVD-9
Enabled regions: 1, 2, 3, 4, 5, 6, 7, 8

VTS_01 :
Play Length: 00:00:05
Video: PAL 4:3 (720x576) VBR
Audio:
Not specified (Dolby AC3, 2 ch)
Not specified (Dolby AC3, 2 ch)
Not specified (Dolby AC3, 2 ch)
Subtitles:
Not specified
Not specified

VTS_02 :
Play Length: 00:00:09
Video: PAL 16:9 (720x576) VBR, Auto Letterboxed
Audio:
Not specified (Dolby AC3, 2 ch)
Not specified (Dolby AC3, 2 ch)
Not specified (Dolby AC3, 2 ch)
Subtitles:
Not specified

VTS_03 :
Play Length: 00:01:59
Video: PAL 16:9 (720x576) VBR, Auto Letterboxed
Audio:
Not specified (Dolby AC3, 2 ch)
Not specified (Dolby AC3, 2 ch)
Not specified (Dolby AC3, 2 ch)
Subtitles:
Not specified

VTS_04 :
Play Length: 00:01:29
Video: PAL 16:9 (720x576) VBR, Auto Letterboxed
Audio:
Not specified (Dolby AC3, 2 ch)
Not specified (Dolby AC3, 2 ch)
Not specified (Dolby AC3, 2 ch)
Subtitles:
Not specified

VTS_05 :
Play Length: 00:01:48
Video: PAL 16:9 (720x576) VBR, Auto Letterboxed
Audio:
Not specified (Dolby AC3, 2 ch)
Not specified (Dolby AC3, 2 ch)
Not specified (Dolby AC3, 2 ch)
Subtitles:
Not specified

VTS_06 :
Play Length: 01:29:07
Video: PAL 16:9 (720x576) VBR, Auto Letterboxed
Audio:
Russian (Dolby AC3, 6 ch)
Espanol (Dolby AC3, 6 ch)
Subtitles:
Russian

VTS_07 :
Play Length: 00:02:08
Video: PAL 16:9 (720x576) VBR, Auto Letterboxed
Audio:
Not specified (Dolby AC3, 2 ch)
Subtitles:
Not specified

VTS_08 :
Play Length: 00:01:47
Video: PAL 16:9 (720x576) VBR, Auto Letterboxed
Audio:
Not specified (Dolby AC3, 2 ch)
Subtitles:
Not specified

VTS_09 :
Play Length: 00:02:18
Video: PAL 16:9 (720x576) VBR, Auto Letterboxed
Audio:
Not specified (Dolby AC3, 2 ch)
Subtitles:
Not specified

VTS_10 :
Play Length: 00:01:49
Video: PAL 16:9 (720x576) VBR, Auto Letterboxed
Audio:
Not specified (Dolby AC3, 2 ch)
Subtitles:
Not specified

VTS_11 :
Play Length: 00:03:06
Video: PAL 16:9 (720x576) VBR, Auto Letterboxed

* Menus Information *

VIDEO_TS Menu
Video:
PAL 16:9 (720x576) VBR
Auto Pan&Scan, Auto Letterboxed
English Language Unit :
Title Menu

VTS_01 Menu
Video:
PAL 16:9 (720x576) VBR
Auto Letterboxed
Audio:
Not specified (Dolby AC3, 2 ch)
English Language Unit :
Root Menu

VTS_02 Menu
Video:
PAL 4:3 (720x576) VBR
English Language Unit :
Root Menu

VTS_03 Menu
Video:
PAL 4:3 (720x576) VBR
English Language Unit :
Root Menu

VTS_04 Menu
Video:
PAL 4:3 (720x576) VBR
English Language Unit :
Root Menu

VTS_05 Menu
Video:
PAL 4:3 (720x576) VBR
English Language Unit :
Root Menu

VTS_06 Menu
Video:
PAL 4:3 (720x576) VBR
English Language Unit :
Root Menu
Chapter (PTT) Menu

VTS_07 Menu
Video:
PAL 4:3 (720x576) VBR
English Language Unit :
Root Menu

VTS_08 Menu
Video:
PAL 4:3 (720x576) VBR
English Language Unit :
Root Menu

VTS_09 Menu
Video:
PAL 4:3 (720x576) VBR
English Language Unit :
Root Menu

VTS_10 Menu
Video:
PAL 4:3 (720x576) VBR
English Language Unit :
Root Menu

VTS_11 Menu
Video:
PAL 4:3 (720x576) VBR
English Language Unit :
Root Menu


Общее
Полное имя: J:Новинки 2012Konec.sveta.2012.DVD9VIDEO_TSVTS_06_1.VOB
Формат: MPEG-PS
Размер файла: 1024 Мбайт
Продолжительность: 19 м.
Вид битрейта: Постоянный
Битрейт: 448 Кбит/сек
Каналы: 6 каналов
Расположение каналов: Front: L C R, Side: L R, LFE
Частота: 48,0 КГц
Битовая глубина: 16 бит
Метод сжатия: С потерями
Размер потока: 63,9 Мбайт (6%)

Аудио #2
Идентификатор: 189 (0xBD)-129 (0x81)
Формат: AC-3
Формат/Информация: Audio Coding 3
Расширение режима: CM (complete main)
Параметр Endianness формата: Big
Режим смешивания: DVD-Video
Продолжительность: 19 м.
Вид битрейта: Постоянный
Битрейт: 448 Кбит/сек
Каналы: 6 каналов
Расположение каналов: Front: L C R, Side: L R, LFE
Частота: 48,0 КГц
Битовая глубина: 16 бит
Метод сжатия: С потерями
Размер потока: 63,9 Мбайт (6%)

Текст
Идентификатор: 189 (0xBD)-32 (0x20)
Формат: RLE
Формат/Информация: Run-length encoding
Режим смешивания: DVD-Video









реклама партнёра


Вернуться к началу
 Профиль Отправить личное сообщение  
 
   Похожие торренты   Автор   Торрент   Размер 
В этой теме нет новых непрочитанных сообщений. Конец света 2013: Апокалипсис по-голливудски / This Is the End [комедия, фэнтези, 2013] DVD9, Dub+Sub [лицензия]

salma3

20 | 7

7.8 ГБ

В этой теме нет новых непрочитанных сообщений. Конец света 2013: Апокалипсис по-голливудски / This Is the End [комедия, фэнтези, 2013] DVD5, Dub+Sub [лицензия]

Dracon

21 | 2

4.37 ГБ

В этой теме нет новых непрочитанных сообщений. Конец света инкорпорейтед / End of Days, Inc. [фантастика, комедия, 2016] HDRip, Avo

salma3

85 | 8

1.57 ГБ

В этой теме нет новых непрочитанных сообщений. Конец света инкорпорейтед / End of Days, Inc. (фантастика, комедия, 2015) HDRip | L1

marya111

154 | 2

1.34 ГБ

В этой теме нет новых непрочитанных сообщений. На грани сомнения / Suspension of Disbelief [триллер, 2012] DVD9, Mvo+Sub [лицензия]

salma3

32 | 11

5.43 ГБ

В этой теме нет новых непрочитанных сообщений. Атака титанов. Фильм второй: Конец света / Shingeki no kyojin endo obu za wârudo (Синдзи Хигути ) [фэнтези, боевик, драма, приключения, 2015] WEB-DL 1080p, Dub [iTunes]

Dracon

4568 | 217

2.92 ГБ

В этой теме нет новых непрочитанных сообщений. Атака титанов. Фильм второй: Конец света / Shingeki no kyojin endo obu za wârudo (Синдзи Хигути ) [фэнтези, боевик, драма, приключения, 2015] WEB-DLRip, Dub [iTunes]

Dracon

11180 | 615

1.37 ГБ


Начать новую тему Ответить на тему  [ 1 сообщение ] 




Для Мосгорсуда, Роскомнадзора и рекламодателей:: mosgorsud-torrent[собачка]yandex.ru