Торрент файл
скачать торрент магнет ссылка Добавлен: 13 янв 2013, 00:52
Размер: 4.35 ГБ
Сидеров: 0
Личеров: 2
Статус: (drink)
Автор

СообщениеДобавлено: 13 янв 2013, 00:52 

Не в сети
Супермодератор
Аватара пользователя
Дата регистрации:
11 апр 2010, 18:10
Спасибо: 5801 / 7
Сообщения: 56779
Название: Помогите стать отцом
Оригинальное название: Not Suitable for Children
Год выпуска: 2012
Страна: Австралия
Жанр: мелодрама, комедия
Продолжительность: 01:32:00
Перевод: Профессиональный (полное дублирование)

Режиссер: Питер Темплмен
Сценарий: Майкл Лукас, Питер Темплмен
Продюсер: Джоди Маттерсон, Даррен Эштон, Барбара Гиббс, Гари Хэмилтон, Бруна Папандреа
Оператор: Лачлан Милн
Композитор: Маттео Зингалес

В ролях: Райан Квантен, Сара Снук, Райан Корр, Бояна Новакович, Сьюзэн Прайор, Льюис Фиц-Джералд, Кэтерин Бек, Белинда Бромилов, Зои Каридес, Элис Паркинсон, Лулу МакКлэтчи, Дэниэл Хеншэлл

Бюджет: AUD 4 500 000

Описание: Молодой плейбой узнает, что у него остался один месяц до того, как он станет бесплодным. И он решает как можно скорее зачать ребенка.



Формат: DVD Video
Видео: MPEG2; PAL 16:9 (720x576)
Аудио: Dolby AC3, 6 ch, 448 Kbps Russian
Субтитры: нет


Дополнительная информация :
Исходник : DVD9 (6.30 Гб) [лицензия, PAL 16:9]
Убрано : анонсы, реклама, заставки, предупреждения
Сжатие фильма : 24.4 % сжатия (без учета ручного перераспределения битрейта, за счет большего сжатия конечных титров)

DVDRemakePro
Photoshop
MuxMan
Rebuilder и CCE (Cinema Craft Encoder), 5 проходов
Работоспособность проверена на софтовом плеере Windows Media и бытовом LG
Title: Pomogite.stat.otcom_2012_DVD5.[R.G.Daredevil]
Size: 4.35 Gb ( 4 560 830,00 KBytes ) - DVD-5
Enabled regions: 1, 2, 3, 4, 5, 6, 7, 8

VTS_01 :
Play Length: 00:00:00
Video: PAL 4:3 (720x576) VBR
Audio:
Not specified (Dolby AC3, 2 ch)

VTS_02 :
Play Length: 00:00:00
Video: PAL 16:9 (720x576) VBR, Auto Letterboxed
Audio:
Not specified (Dolby AC3, 2 ch)

VTS_03 :
Play Length: 00:00:00
Video: PAL 16:9 (720x576) VBR, Auto Letterboxed
Audio:
Russian (Dolby AC3, 2 ch)
Russian (Dolby AC3, 2 ch)

VTS_04 :
Play Length: 01:32:00
Video: PAL 16:9 (720x576) VBR, Auto Letterboxed
Audio:
Russian (Dolby AC3, 6 ch)

VTS_05 :
Play Length: 00:00:00
Video: PAL 16:9 (720x576) VBR, Auto Letterboxed
Audio:
Russian (Dolby AC3, 2 ch)
Russian (Dolby AC3, 2 ch)

VTS_06 :
Play Length: 00:00:00
Video: PAL 16:9 (720x576) VBR, Auto Letterboxed
Audio:
Not specified (Dolby AC3, 2 ch)

VTS_07 :
Play Length: 00:00:00
Video: PAL 16:9 (720x576) VBR, Auto Letterboxed
Audio:
Not specified (Dolby AC3, 2 ch)

VTS_08 :
Play Length: 00:00:00
Video: PAL 16:9 (720x576) VBR, Auto Letterboxed
Audio:
Not specified (Dolby AC3, 2 ch)

VTS_09 :
Play Length: 00:00:00
Video: PAL 16:9 (720x576) VBR, Auto Letterboxed
Audio:
Not specified (Dolby AC3, 2 ch)

VTS_10 :
Play Length: 00:00:00
Video: PAL 16:9 (720x576) VBR, Auto Letterboxed
Audio:
Not specified (Dolby AC3, 2 ch)

VTS_11 :
Play Length: 00:00:00
Video: PAL 16:9 (720x576) VBR, Auto Letterboxed
Audio:
Not specified (Dolby AC3, 2 ch)

VTS_12 :
Play Length: 00:00:00
Video: PAL 16:9 (720x576) VBR, Auto Letterboxed
Audio:
Not specified (Dolby AC3, 2 ch)

VTS_13 :
Play Length: 00:00:00
Video: PAL 16:9 (720x576) VBR, Auto Letterboxed
Audio:
Not specified (Dolby AC3, 2 ch)
Формат: MPEG-PS
Размер файла: 1024 Мбайт
Продолжительность: 20 м.
Режим общего битрейта: Переменный
Общий поток: 6950 Кбит/сек

Видео
Идентификатор: 224 (0xE0)
Формат: MPEG Video
Версия формата: Version 2
Профиль формата: Main@Main
Параметр BVOP формата: Да
Параметр матрицы формата: Выборочная
Продолжительность: 20 м.
Вид битрейта: Переменный
Битрейт: 6364 Кбит/сек
Максимальный битрейт: 8441 Кбит/сек
Ширина: 720 пикселей
Высота: 576 пикселей
Соотношение сторон: 16:9
Частота кадров: 25,000 кадров/сек
Стандарт вещания: PAL
Цветовое пространство: YUV
Субдискретизация насыщенности: 4:2:0
Битовая глубина: 8 бит
Тип развёртки: Чересстрочная
Порядок развёртки: Нижнее поле первое
Метод сжатия: С потерями
Бит/(Пиксели*Кадры): 0.614
Размер потока: 938 Мбайт (92%)

Аудио
Идентификатор: 189 (0xBD)-128 (0x80)
Формат: AC-3
Формат/Информация: Audio Coding 3
Расширение режима: CM (complete main)
Режим смешивания: DVD-Video
Продолжительность: 20 м.
Вид битрейта: Постоянный
Битрейт: 448 Кбит/сек
Каналы: 6 каналов
Расположение каналов: Front: L C R, Side: L R, LFE
Частота: 48,0 КГц
Битовая глубина: 16 бит
Метод сжатия: С потерями
Размер потока: 66,0 Мбайт (6%)

Меню













реклама партнёра


Вернуться к началу
 Профиль Отправить личное сообщение  
 
   Похожие торренты   Автор   Торрент   Размер 
В этой теме нет новых непрочитанных сообщений. Встреча с отцом / Meeting Daddy [Мелодрама, комедия, 2000] DVDRip, Dvo

salma3

17 | 2

1.45 ГБ

В этой теме нет новых непрочитанных сообщений. Мужчины, женщины и дети / Men, Women & Children (Джейсон Рейтмен) [драма, комедия, 2014] DVD5, Dub+Sub [Лицензия]

Dracon

59 | 21

4.36 ГБ

В этой теме нет новых непрочитанных сообщений. Помогите вспомнить / The Blackout [комедия, 2013] WEB-DLRip, Mvo

salma3

243 | 10

1.46 ГБ

В этой теме нет новых непрочитанных сообщений. Четверг, 12-e [Комедия, мелодрама, 2012] DVD5 [Лицензия]

Dracon

113 | 22

3.54 ГБ

В этой теме нет новых непрочитанных сообщений. Mayday Children - Mayday Children [2014, Rock Opera, Progressive Metal, MP3]

PriZraK

3 | 3

170.8 МБ

В этой теме нет новых непрочитанных сообщений. Children Of Nova - Impossible Landscape [2012, Progressive Rock, MP3]

PriZraK

0 | 1

100.16 МБ

В этой теме нет новых непрочитанных сообщений. Дети полуночи / Midnight's Children [Драма, 2012] HDRip, Mvo

salma3

55 | 15

1.46 ГБ


Начать новую тему Ответить на тему  [ 1 сообщение ] 




Для Мосгорсуда, Роскомнадзора и рекламодателей:: mosgorsud-torrent[собачка]yandex.ru