Торрент файл
скачать торрент магнет ссылка Добавлен: 10 дек 2012, 16:02
Размер: 4.37 ГБ
Сидеров: 31
Личеров: 9
Автор

СообщениеДобавлено: 10 дек 2012, 16:02 

Не в сети
Зам. Админа
Аватара пользователя
Дата регистрации:
02 дек 2010, 12:39
Спасибо: 12612 / 214
Сообщения: 28049

Год выхода: 2011
Жанр: боевик, триллер, драма, детектив
Режиссер: Джон Синглтон
В ролях: Тэйлор Лотнер, Лили Коллинз, Джейсон Айзекс, Альфред Молина, Сигурни Уивер, Мария Белло, Антоник Смит, Микаэл Нюквист, Дэнзел Уитакер, Джейк Андолина

О фильме:
Главный герой в один прекрасный день обнаруживает на сайте по розыску пропавших детей собственное фото. Отойдя от шока, он понимает, что родители похитили его и вырастили как собственного ребенка. Юноша начинает расследование, которое, в итоге, превращается в цепь жестоких и местами смертельно опасных событий.
Обработано в DVDRemake Pro.+Photoshop+Muxman
Финальные титры сжимались - 31%, остальное - 0%.
Сжималось связкой DVD Rebuilder + CCE/Procoder в 5 проходов.
Удалёно: Анонсы; Война за правду; Как создавался фильм; Погоня: день за днем; Новый герой боевика; Неудавшиеся дубли; Трейлер, Russian (DTS, 5 ch), Ukrainian (Dolby AC3, 6 ch), заставки и предупреждение.
Лишние кнопки затерты и закрыты.
Общее
Полное имя: D:ТорентыPogonja.2011.DVD-5VIDEO_TSVTS_10_1.VOB
Формат: MPEG-PS
Размер файла: 1024 Мбайт
Продолжительность: 22 м.
Режим общего битрейта: Переменный
Общий поток: 6312 Кбит/сек

Видео
Идентификатор: 224 (0xE0)
Формат: MPEG Video
Версия формата: Version 2
Профиль формата: Main@Main
Параметр BVOP формата: Да
Параметр матрицы формата: Выборочная
Параметр GOP формата: M=3, N=12
Продолжительность: 22 м.
Вид битрейта: Переменный
Битрейт: 5290 Кбит/сек
Максимальный битрейт: 9800 Кбит/сек
Ширина: 720 пикселей
Высота: 576 пикселей
Соотношение сторон: 16:9
Частота кадров: 25,000 кадров/сек
Стандарт вещания: PAL
Цветовое пространство: YUV
Субдискретизация насыщенности: 4:2:0
Битовая глубина: 8 бит
Тип развёртки: Чересстрочная
Порядок развёртки: Верхнее поле первое
Метод сжатия: С потерями
Бит/(Пиксели*Кадры): 0.510
Размер потока: 858 Мбайт (84%)

Аудио #1
Идентификатор: 189 (0xBD)-128 (0x80)
Формат: AC-3
Формат/Информация: Audio Coding 3
Расширение режима: CM (complete main)
Параметр Endianness формата: Big
Режим смешивания: DVD-Video
Продолжительность: 22 м.
Вид битрейта: Постоянный
Битрейт: 448 Кбит/сек
Каналы: 6 каналов
Расположение каналов: Front: L C R, Side: L R, LFE
Частота: 48,0 КГц
Битовая глубина: 16 бит
Метод сжатия: С потерями
Размер потока: 72,7 Мбайт (7%)

Аудио #2
Идентификатор: 189 (0xBD)-129 (0x81)
Формат: AC-3
Формат/Информация: Audio Coding 3
Расширение режима: CM (complete main)
Параметр Endianness формата: Big
Режим смешивания: DVD-Video
Продолжительность: 22 м.
Вид битрейта: Постоянный
Битрейт: 448 Кбит/сек
Каналы: 6 каналов
Расположение каналов: Front: L C R, Side: L R, LFE
Частота: 48,0 КГц
Битовая глубина: 16 бит
Метод сжатия: С потерями
Размер потока: 72,7 Мбайт (7%)

Текст #1
Идентификатор: 189 (0xBD)-32 (0x20)
Формат: RLE
Формат/Информация: Run-length encoding
Режим смешивания: DVD-Video

Текст #2
Идентификатор: 189 (0xBD)-33 (0x21)
Формат: RLE
Формат/Информация: Run-length encoding
Режим смешивания: DVD-Video

Меню


Страна: США
Продолжительность: 106 мин. / 01:46
Перевод: Профессиональный (дублированный)

Файл
Кодек: MPEG2
Качество: DVD5
Видео: PAL 16:9 (720x576) 5 290 Kbps, 25.000 кадров/сек
Звук:
English (Dolby AC3, 6 ch) 448 Kbps
Russian (Dolby AC3, 6 ch) 448 Kbps
Субтитры: русские, украинские




реклама партнёра


Вернуться к началу
 Профиль  
 
   Похожие торренты   Автор   Торрент   Размер 
В этой теме нет новых непрочитанных сообщений. Похищение Зака Баттерфилда / The Abduction of Zack Butterfield [драма, триллер, криминал, 2011] WEB-DLRip, Avo

salma3

99 | 20

1.34 ГБ

В этой теме нет новых непрочитанных сообщений. Убийца / Sicario [Боевик, триллер, драма, криминал, детектив, 2015] DVD5, Dub [iTunes]

salma3

78 | 15

4.03 ГБ

В этой теме нет новых непрочитанных сообщений. Перекрестный огонь / Bad Country [триллер, драма, детектив, боевик, криминал, 2014] DVD5, Mvo+Sub [Лицензия]

Dracon

22 | 5

3.85 ГБ

В этой теме нет новых непрочитанных сообщений. Погоня / The Chase [триллер, драма, криминал, 1966] BDRip 720p, Dub

salma3

19 | 11

9.32 ГБ

В этой теме нет новых непрочитанных сообщений. Погоня за тремя зайцами [Серия 1-4 из 4] (Алексей Праздников) [Детектив, 2015] SATRip

Dracon

100 | 4

2.28 ГБ

В этой теме нет новых непрочитанных сообщений. Погоня за украденной боеголовкой / Militia [боевик, приключения, 2000] DVDRip, Mvo [РенТВ]

salma3

30 | 1

1.37 ГБ

В этой теме нет новых непрочитанных сообщений. Прежде чем я усну / Before I Go to Sleep [триллер, детектив, драма, 2014] DVD5, Dub [Лицензия]

Dracon

120 | 11

4.2 ГБ


Начать новую тему Ответить на тему  [ 1 сообщение ] 




Для Мосгорсуда, Роскомнадзора и рекламодателей:: mosgorsud-torrent[собачка]yandex.ru