Торрент файл
скачать торрент магнет ссылка Добавлен: 23 сен 2012, 10:56
Размер: 4.37 ГБ
Сидеров: 10
Личеров: 2
Статус: (Dracon)
Автор

СообщениеДобавлено: 23 сен 2012, 10:56 

Не в сети
Зам. Админа
Аватара пользователя
Дата регистрации:
02 дек 2010, 12:39
Спасибо: 12460 / 214
Сообщения: 27968
Год выпуска: 2012
Страна: Канада, Франция
Слоган: «Упасть, чтобы взлететь»
Жанр: фэнтези, мелодрама
Продолжительность: 01:43:28
Перевод: Профессиональный (полное дублирование)

Режиссер: Хуан Диего Соланас
Сценарий: Сантьяго Амигорена, Харрис Демель, Хуан Диего Соланас
Продюсер: Харрис Демель, Алексис Вонарб, Клод Леже, Дмитрий Рассам, Крис Шенг
Оператор: Пьер Жиль
Композитор: Бенуа Шаре
В ролях: Кирстен Данст, Джим Стёрджесс, Стелла Маив, Нил Напье, Джэйн Хейтмейер, Холли О’Брайэн, Ларри Дэй, Агнешка Вроновска, Джон МакЛарен, Дон Джордан, Джеймс Кидни, Фрэнк М. Эхерн

Бюджет: $72 000 000

Описание: Однажды, несколько тысяч лет тому назад, две планеты притянулись друг к другу. Там правили мир и гармония. Но стоило верхнему миру обрести уверенность и власть, как между планетами началось противостояние. Казалось, ничто не может примирить параллельные миры.
Она - дочь президента верхнего мира. Эта хрупкая девушка с сильным характером и не подозревала, что душа ее способна любить. Он - ее половина. Их встреча была предопределена свыше, их судьбы переплелись воедино. Сможет ли Он, вопреки законам физики своего мира, быть вместе со своей любимой?



Релиз:

Качество: DVD5 (сжатый)
Формат: DVD Video
Видео: MPEG2; PAL 16:9 (720x576)
Аудио: Dolby AC3, 6 ch, 448 Kbps Russian
Субтитры: нет


Дополнительная информация :
Исходник : DVD9 (7.67 Гб) [лицензия, PAL 16:9]
Убрано : реклама, заставки, предупреждения
Сжатие фильма : 43 % сжатия (без учета ручного перераспределения битрейта, за счет большего сжатия конечных титров)

DVDRemakePro
Rebuilder и CCE (Cinema Craft Encoder), 5 проходов
Работоспособность проверена на софтовом плеере Windows Media и бытовом LG
Title: Paralellnye.miry_2012_DVD5.[R.G.Daredevil]
Size: 4.37 Gb ( 4 579 456,00 KBytes ) - DVD-5
Enabled regions: 1, 2, 3, 4, 5, 6, 7, 8

VTS_01 :
Play Length: 01:43:28
Video: PAL 16:9 (720x576) VBR, Auto Letterboxed
Audio:
Russian (Dolby AC3, 6 ch)
Формат : MPEG-PS
Размер файла : 1024 Мбайт
Продолжительность : 22 м.
Режим общего битрейта : Переменный
Общий поток : 6436 Кбит/сек

Видео
Идентификатор : 224 (0xE0)
Формат : MPEG Video
Версия формата : Version 2
Профиль формата : Main@Main
Параметр BVOP формата : Да
Параметр матрицы формата : Выборочная
Продолжительность : 22 м.
Вид битрейта : Переменный
Битрейт : 5860 Кбит/сек
Максимальный битрейт : 9000 Кбит/сек
Ширина : 720 пикселей
Высота : 576 пикселей
Соотношение сторон : 16:9
Частота кадров : 25,000 кадров/сек
Стандарт вещания : PAL
Цветовое пространство : YUV
Субдискретизация насыщенности : 4:2:0
Битовая глубина : 8 бит
Тип развёртки : Чересстрочная
Порядок развёртки : Верхнее поле первое
Метод сжатия : С потерями
Бит/(Пиксели*Кадры) : 0.565
Размер потока : 932 Мбайт (91%)

Аудио
Идентификатор : 189 (0xBD)-128 (0x80)
Формат : AC-3
Формат/Информация : Audio Coding 3
Расширение режима : CM (complete main)
Режим смешивания : DVD-Video
Продолжительность : 22 м.
Вид битрейта : Постоянный
Битрейт : 448 Кбит/сек
Каналы : 6 каналов
Расположение каналов : Front: L C R, Side: L R, LFE
Частота : 48,0 КГц
Битовая глубина : 16 бит
Метод сжатия : С потерями
Размер потока : 71,3 Мбайт (7%)

Меню

Когда зачитывают список сотрудников, в чьих услугах компания Трансмир больше не нуждается, то называют имя режиссера Хуан Соланс.

















реклама партнёра


Вернуться к началу
 Профиль  
 
   Похожие торренты   Автор   Торрент   Размер 
В этой теме нет новых непрочитанных сообщений. Параллельные миры [Мелодрама, 2013] DVD5 [Лицензия]

Dracon

0 | 4

3.85 ГБ

В этой теме нет новых непрочитанных сообщений. Параллельные миры [Мелодрама, 2013] DVDRip [Лицензия]

Dracon

90 | 8

1.37 ГБ

В этой теме нет новых непрочитанных сообщений. Скользящие / Параллельные миры / Sliders [S02] [Фантастика, Мистика, Приключения, 1996] DVDRemux, Avo+2Mvo+Sub

salma3

73 | 37

27.61 ГБ

В этой теме нет новых непрочитанных сообщений. Скользящие / Параллельные миры / Sliders [S05] [Фантастика, Мистика, Приключения, 1999] DVDRemux, Avo+2Mvo+Sub

salma3

23 | 25

32.24 ГБ

В этой теме нет новых непрочитанных сообщений. Скользящие / Параллельные миры / Sliders [S01] [Фантастика, Мистика, Приключения, 1995] DVDRemux, Avo+2Mvo+Sub

salma3

197 | 53

20.19 ГБ

В этой теме нет новых непрочитанных сообщений. Скользящие / Параллельные миры / Sliders [S03] [Фантастика, Мистика, Приключения, 1997] DVDRemux, Avo+2Mvo+Sub

salma3

45 | 54

46.5 ГБ

В этой теме нет новых непрочитанных сообщений. Скользящие / Параллельные миры / Sliders [S04] [Фантастика, Мистика, Приключения, 1998] DVDRemux, Avo+2Mvo+Sub

salma3

39 | 37

39.71 ГБ


Начать новую тему Ответить на тему  [ 1 сообщение ] 




Для Мосгорсуда, Роскомнадзора и рекламодателей:: mosgorsud-torrent[собачка]yandex.ru