Торрент файл
скачать торрент магнет ссылка Добавлен: 14 июл 2012, 11:05
Размер: 4.35 ГБ
Сидеров: 22
Личеров: 5
Статус: (Dracon)
Автор

СообщениеДобавлено: 14 июл 2012, 11:05 

Не в сети
Зам. Админа
Аватара пользователя
Дата регистрации:
02 дек 2010, 12:39
Спасибо: 12461 / 214
Сообщения: 27968

Год выпуска: 2012
Страна: Франция
Слоган: «В одиночку против 500. В чем проблема?»
Жанр: фантастика, боевик, триллер
Продолжительность: 01:31:08
Перевод: Профессиональный (полное дублирование)

Режиссер: Джеймс Мэтер, Стивен Ст. Леджер
Сценарий: Стивен Ст. Леджер, Джеймс Мэтер, Люк Бессон
Продюсер: Марк Либерт, Лейла Смит, Люк Бессон
Оператор: Джеймс Мэтер
Композитор: Александр Азария
В ролях: Гай Пирс, Мэгги Грэйс, Винсент Риган, Джозеф Гилган, Ленни Джеймс, Петер Стормаре, Джеки Идо, Тим Плестер, Марк Танкерсли, Энн-Соленн Хатте

Бюджет: $20 000 000
Сборы в мире: $25 652 960

Описание: Орбитальная станция MS1 - крупнейшая космическая тюрьма, где в анабиозе содержатся тысячи опасных преступников. Ходят слухи, что над погруженными в искусственный сон узниками проводятся противозаконные эксперименты. С расследованием на станцию отправлена комиссия во главе с Эмили Уорнок, дочерью президента США.
Неожиданно ситуация выходит из-под контроля, и вся станция оказывается захвачена уголовниками. Спецагент Сноу, несправедливо обвиненный в государственной измене, получает задание проникнуть в самую неприступную тюрьму во Вселенной и спасти Эмили. Это его единственный шанс вернуть себе доброе имя и получить свободу.



MPAA:
Релиз:

Качество: DVD5 (сжатый)
Формат: DVD Video
Видео: MPEG2; PAL 16:9 (720x576)
Аудио #1: Dolby AC3, 6 ch, 448 Kbps Russian
Аудио #2: Dolby AC3, 6 ch, 256 Kbps English
Субтитры: русские


Дополнительная информация :
Исходник : DVD9 (6.84 Гб) [лицензия, PAL 16:9]
Убрано : часть допов, заставки, предупреждения, Russian (DTS, 6 ch), произведена замена Russian (AC3, 256 Kbps, 6 ch) на Russian (AC3, 448 Kbps, 6 ch)
Сжатие фильма : нет

DVDRemakePro
Photoshop
MuxMan
PgcDemux
Tranzcode
Soft Encode
Работоспособность проверена на софтовом плеере Windows Media и бытовом LG
Title: Naprolom_2012_DVD5.[R.G.Daredevil]
Size: 4.35 Gb ( 4 563 042,00 KBytes ) - DVD-5
Enabled regions: 1, 2, 3, 4, 5, 6, 7, 8

VTS_01 :
Play Length: 00:00:00
Video: PAL 16:9 (720x576) VBR, Auto Pan&Scan, Auto Letterboxed

VTS_02 :
Play Length: 00:00:00
Video: PAL 16:9 (720x576) VBR, Auto Pan&Scan, Auto Letterboxed

VTS_03 :
Play Length: 01:31:08
Video: PAL 16:9 (720x576) VBR, Auto Pan&Scan, Auto Letterboxed
Audio:
Russian (Dolby AC3, 6 ch)
Russian (DTS, 6 ch)
Subtitles:
Russian
Not specified
Not specified

VTS_04 :
Play Length: 00:03:57
Video: PAL 16:9 (720x576) VBR, Auto Pan&Scan, Auto Letterboxed
Audio:
Not specified (Dolby AC3, 2 ch)
Not specified (Dolby AC3, 2 ch)
Not specified (Dolby AC3, 2 ch)
Subtitles:
Not specified
Not specified
Not specified
Формат : MPEG-PS
Размер файла : 1024 Мбайт
Продолжительность : 21 м.
Режим общего битрейта : Переменный
Общий поток : 6523 Кбит/сек

Видео
Идентификатор : 224 (0xE0)
Формат : MPEG Video
Версия формата : Version 2
Профиль формата : Main@Main
Параметр BVOP формата : Да
Параметр матрицы формата : Выборочная
Параметр GOP формата : M=3, N=15
Продолжительность : 21 м.
Вид битрейта : Переменный
Битрейт : 5689 Кбит/сек
Максимальный битрейт : 8300 Кбит/сек
Ширина : 720 пикселей
Высота : 576 пикселей
Соотношение сторон : 16:9
Частота кадров : 25,000 кадров/сек
Стандарт вещания : PAL
Цветовое пространство : YUV
Субдискретизация насыщенности : 4:2:0
Битовая глубина : 8 бит
Тип развёртки : Чересстрочная
Порядок развёртки : Верхнее поле первое
Метод сжатия : С потерями
Бит/(Пиксели*Кадры) : 0.549
Размер потока : 893 Мбайт (87%)

Аудио #1
Идентификатор : 189 (0xBD)-128 (0x80)
Формат : AC-3
Формат/Информация : Audio Coding 3
Расширение режима : CM (complete main)
Режим смешивания : DVD-Video
Продолжительность : 21 м.
Вид битрейта : Постоянный
Битрейт : 448 Кбит/сек
Каналы : 6 каналов
Расположение каналов : Front: L C R, Side: L R, LFE
Частота : 48,0 КГц
Битовая глубина : 16 бит
Метод сжатия : С потерями
Размер потока : 70,3 Мбайт (7%)

Аудио #2
Идентификатор : 189 (0xBD)-130 (0x82)
Формат : AC-3
Формат/Информация : Audio Coding 3
Расширение режима : CM (complete main)
Режим смешивания : DVD-Video
Продолжительность : 21 м.
Вид битрейта : Постоянный
Битрейт : 256 Кбит/сек
Каналы : 6 каналов
Расположение каналов : Front: L C R, Side: L R, LFE
Частота : 48,0 КГц
Битовая глубина : 16 бит
Метод сжатия : С потерями
Размер потока : 40,2 Мбайт (4%)

Текст
Идентификатор : 189 (0xBD)-32 (0x20)
Формат : RLE
Формат/Информация : Run-length encoding
Режим смешивания : DVD-Video

Меню

Главные отрицательные герои – братья Алекс и Хайделл. Алек Хиделл – псевдоним, который использовал Ли Харви Освальд.
В одной из сцен Сноу отмечает: «Вопреки распространённому мнению, на самом деле я не Гудини». Гай Пирс играл Гарри Гудини в фильме «Смертельный номер» (2007).
«Крик Вильгельма» звучит в фильме в сцене, где заключенный спотыкается и падает сразу после выхода из стазиса.
Когда стазисные камеры первый раз открываются, можно видеть как одна из них открывается дважды.
Когда сценарий был завершен, режиссеры убедили Бессона, что им необходимо полностью «пре-визуализировать» будущий фильм с помощью раскадровки и анимированных моделей героев и декораций.
Пре-визуализация оказалась чрезвычайно полезна для глав технических департаментов, сумевших благодаря ей получить более четкое представление об особенностях экшн-сцен, а также каскадеров, которые уяснили себе, чего хотят добиться постановщики. А учитывая, что все технические специалисты были разного происхождения – из Бразилии, Ирландии, Франции, Сербии, - пре-визуализация успешно помогла им преодолеть языковой барьер.
Главным инициатором создания картины выступила французская компания (она же продюсировала ленту), съемки фильма проходили в Сербии, основные роли исполнили англоговорящие актеры, и при этом на проект распространялись ирландские налоговые льготы.
Часть объектов и декораций сочетала элементы технических конструкций и зеленого экрана – таковы, например, космический полицейский департамент в форме листка клевера, фоном которому служили Земля и космические глубины, или шоссе, где разворачивается погоня на мотоциклах.
Эпизод в Овальном кабинете был снят на пивоваренном заводе Amstel, расположенном в пригороде сербской столицы.
В то время как монтаж и цветокоррекция картины проходили во Франции, визуальными эффектами занималась ирландская студия Windmillane.



















реклама партнёра


Вернуться к началу
 Профиль  
 
   Похожие торренты   Автор   Торрент   Размер 
В этой теме нет новых непрочитанных сообщений. Напролом / The Hard Way [Боевик, комедия, криминал, 1991] DVD5, Mvo+Dvo+Avo+Sub

salma3

8 | 2

4.3 ГБ

В этой теме нет новых непрочитанных сообщений. Напролом / The Hard Way [боевик, комедия, криминал, 1991] BDRip 1080p, Dub+Mvo+Avo+Sub

salma3

19 | 10

12.17 ГБ

В этой теме нет новых непрочитанных сообщений. Противостояние / The One [фантастика, боевик, триллер, 2001] DVD5, Dub+Avo+Sub

salma3

16 | 5

4.36 ГБ

В этой теме нет новых непрочитанных сообщений. Риддик / Riddick [Фантастика, боевик, триллер, 2013] DVD5, Dub

Dracon

18 | 4

4.37 ГБ

В этой теме нет новых непрочитанных сообщений. Годзилла / Godzilla [Фантастика, боевик, триллер, 2014] DVD5, Dub+Sub [Сжатый]

salma3

29 | 12

4.37 ГБ

В этой теме нет новых непрочитанных сообщений. Жаркий день / Scorcher [фантастика, боевик, триллер, 2002] DVD5, Mvo

salma3

8 | 4

3.65 ГБ

В этой теме нет новых непрочитанных сообщений. Обмен телами / Xchange [Фантастика, триллер, боевик, 2000] DVD5, Mvo+Sub [Лицензия]

salma3

14 | 5

4.14 ГБ


Начать новую тему Ответить на тему  [ 1 сообщение ] 




Для Мосгорсуда, Роскомнадзора и рекламодателей:: mosgorsud-torrent[собачка]yandex.ru