Торрент файл
скачать торрент магнет ссылка Добавлен: 02 июл 2012, 09:27
Размер: 4.37 ГБ
Сидеров: 5
Личеров: 4
Статус: (Dracon)
Автор

СообщениеДобавлено: 02 июл 2012, 09:27 

Не в сети
Зам. Админа
Аватара пользователя
Дата регистрации:
02 дек 2010, 12:39
Спасибо: 12461 / 214
Сообщения: 27968
Год выпуска: 2011
Страна: Канада, Франция
Слоган: «She saw the killer's face, but it keeps changing...»
Жанр: триллер, драма
Продолжительность: 01:38:07
Перевод: Профессиональный (многоголосый, закадровый)

Режиссер: Жюльен Манья
Сценарий: Жюльен Манья, Келли Смит
Продюсер: Жан-Шарль Леви, Клементе Мисерез, Кевин ДеУолт
Оператор: Рене Охаши
Композитор: Джон МакКарти
В ролях: Милла Йовович, Джулиан МакМэхон, Дэвид Атракчи, Майкл Шэнкс, Марианна Фэйтфулл, Сара Уэйн Кэллис, Сандрин Холт, Валентина Варгас, Адам Харингтон, Энтони Лемке

Бюджет: $15 000 000

Описание: Сюжет повествует о страшной трагедии, которая произошла в жизни молодой женщины. После нападения серийного убийцы она чудом осталась жива. Однако сложная травма головы сделала её фактически беспомощной. Она совсем не запоминает лица людей, и как только они исчезают из ее поля зрения, они стираются из ее памяти навсегда.


MPAA:
Релиз:

Качество: DVD5 (сжатый)
Формат: DVD Video
Видео: MPEG2; PAL 16:9 (720x576)
Аудио: Dolby AC3, 6 ch, 384 Kbps Russian
Субтитры: нет


Дополнительная информация :
Исходник : DVD9 (5.65 Гб) [лицензия, PAL 16:9]
Убрано : допы, реклама, заставки, предупреждения
Сжатие фильма : 16.9 % сжатия (без учета ручного перераспределения битрейта, за счет большего сжатия конечных титров)

DVDRemakePro
Photoshop
MuxMan
Rebuilder и CCE (Cinema Craft Encoder), 5 проходов
Работоспособность проверена на софтовом плеере Windows Media и бытовом LG
Title: Lica.v.tolpe_2011_DVD5.[R.G.Daredevil]
Size: 4.37 Gb ( 4 586 802,00 KBytes ) - DVD-5
Enabled regions: 1, 2, 3, 4, 5, 6, 7, 8

VTS_01 :
Play Length: 01:38:07
Video: PAL 16:9 (720x576) VBR, Auto Letterboxed
Audio:
Russian (Dolby AC3, 6 ch)

VTS_02 :
Play Length: 00:00:00+00:00:00
Video: PAL 16:9 (720x576) VBR, Auto Letterboxed
Audio:
Russian (Dolby AC3, 6 ch)

* Menus Information *

VIDEO_TS Menu
Video:
PAL 16:9 (720x576) VBR
Auto Letterboxed
Audio:
Not specified (Dolby AC3, 2 ch)
English Language Unit :
Title Menu

VTS_01 Menu
Video:
PAL 16:9 (720x576) VBR
Auto Letterboxed
Audio:
Not specified (Dolby AC3, 2 ch)
English Language Unit :
Root Menu

VTS_02 Menu
Video:
NTSC 4:3 (720x480) VBR
Auto Pan&Scan, Auto Letterboxed
English Language Unit :
Root Menu
Формат : MPEG-PS
Размер файла : 1024 Мбайт
Продолжительность : 21 м.
Режим общего битрейта : Переменный
Общий поток : 6652 Кбит/сек

Видео
Идентификатор : 224 (0xE0)
Формат : MPEG Video
Версия формата : Version 2
Профиль формата : Main@Main
Параметр BVOP формата : Да
Параметр матрицы формата : Выборочная
Продолжительность : 21 м.
Вид битрейта : Переменный
Битрейт : 6135 Кбит/сек
Максимальный битрейт : 9000 Кбит/сек
Ширина : 720 пикселей
Высота : 576 пикселей
Соотношение сторон : 16:9
Частота кадров : 25,000 кадров/сек
Стандарт вещания : PAL
Цветовое пространство : YUV
Субдискретизация насыщенности : 4:2:0
Битовая глубина : 8 бит
Тип развёртки : Чересстрочная
Порядок развёртки : Верхнее поле первое
Метод сжатия : С потерями
Бит/(Пиксели*Кадры) : 0.592
Размер потока : 945 Мбайт (92%)

Аудио
Идентификатор : 189 (0xBD)-128 (0x80)
Формат : AC-3
Формат/Информация : Audio Coding 3
Расширение режима : CM (complete main)
Режим смешивания : DVD-Video
Продолжительность : 21 м.
Вид битрейта : Постоянный
Битрейт : 384 Кбит/сек
Каналы : 6 каналов
Расположение каналов : Front: L C R, Side: L R, LFE
Частота : 48,0 КГц
Битовая глубина : 16 бит
Метод сжатия : С потерями
Размер потока : 59,1 Мбайт (6%)

Меню













реклама партнёра


Вернуться к началу
 Профиль  
 
   Похожие торренты   Автор   Торрент   Размер 
В этой теме нет новых непрочитанных сообщений. Beautiful New Faces 6 / Новые прекрасные лица 6 (2016) WEBRip

amadei

144 | 93

1.16 ГБ

В этой теме нет новых непрочитанных сообщений. Brand New Faces 43 / Совершенно новые лица 43 (B. Skow, Vivid) [2014 г., All Sex, DVDRip]

friizze

7 | 275

2.23 ГБ

В этой теме нет новых непрочитанных сообщений. Своя тусовка / The In Crowd [Триллер, детектив, драма, 2000] DVDRip, Dub+Mvo

salma3

42 | 0

2.04 ГБ

В этой теме нет новых непрочитанных сообщений. Два лика января / The Two Faces of January [триллер, 2014] BDRip, dvo [Paradox]

Dracon

100 | 4

1.47 ГБ

В этой теме нет новых непрочитанных сообщений. Два лика января / The Two Faces of January (Хуссейн Амини / Hossein Amini) [2014г., триллер, WEB-DLRip-AVC] avo

Alfredovich

472 | 7

1.46 ГБ

В этой теме нет новых непрочитанных сообщений. All Faces Down - Face The Truth [2011, Post-Hardcore, Metalcore MP3]

PriZraK

0 | 1

55.26 МБ

В этой теме нет новых непрочитанных сообщений. Подозрительные лица / Suspicious Minds [триллер, 1997] DVDRip, Avo

salma3

81 | 42

1.4 ГБ


Начать новую тему Ответить на тему  [ 1 сообщение ] 




Для Мосгорсуда, Роскомнадзора и рекламодателей:: mosgorsud-torrent[собачка]yandex.ru