Торрент файл
скачать торрент магнет ссылка Добавлен: 04 июн 2012, 20:55
Размер: 7.7 ГБ
Сидеров: 10
Личеров: 7
Статус: (Dracon)
Автор

СообщениеДобавлено: 04 июн 2012, 20:55 

Не в сети
Зам. Админа
Аватара пользователя
Дата регистрации:
02 дек 2010, 12:39
Спасибо: 12461 / 214
Сообщения: 27968

Год выхода: 2011
Жанр: Драма
Режиссер: Маркус Бальдини
В ролях: Дебора Секку, Кассио Габус Мендес, Дрика Мораэс, Кристина Лаго, Гута Руис, Клариссе Абужамра, Симона Илиеску

О фильме:
Девушка Ракель, живущая в семье среднего класса, в свои 17 лет протестует против такого образа жизни, и оставляет свою семью и обучение в традиционном колледже в Сан-Паулу, становясь девушкой по вызову.


Страна: Бразилия
Продолжительность: 01:43:12
Перевод: Любительский, одноголосый (viare)

Кодек: MPEG-2
Качество: DVD-9
Видео: PAL 16:9 (720x576) VBR
Звук: Русский (Dolby AC3, 6 ch) / Португальский (Dolby AC3, 6 ch)
Субтитры: Русские, английские




Полное имя: C:Users_Сергей_DownloadsРаздачиSladkij.jad.skorpiona.2011.DVD9.NovalanVIDEO_TSVTS_01_1.VOB
Формат: MPEG-PS
Размер файла: 1024 Мбайт
Продолжительность: 14 м.
Режим общего битрейта: Переменный
Общий поток: 9895 Кбит/сек

Видео
Идентификатор: 224 (0xE0)
Формат: MPEG Video
Версия формата: Version 2
Профиль формата: Main@Main
Параметр BVOP формата: Да
Параметр матрицы формата: Выборочная
Продолжительность: 14 м.
Вид битрейта: Переменный
Битрейт: 8802 Кбит/сек
Максимальный битрейт: 8900 Кбит/сек
Ширина: 720 пикселей
Высота: 576 пикселей
Соотношение сторон: 16:9
Частота кадров: 25,000 кадров/сек
Стандарт вещания: PAL
Цветовое пространство: YUV
Субдискретизация насыщенности: 4:2:0
Битовая глубина: 8 бит
Тип развёртки: Чересстрочная
Порядок развёртки: Верхнее поле первое
Метод сжатия: С потерями
Бит/(Пиксели*Кадры): 0.849
Размер потока: 911 Мбайт (89%)

Аудио #1
Идентификатор: 189 (0xBD)-128 (0x80)
Формат: AC-3
Формат/Информация: Audio Coding 3
Расширение режима: CM (complete main)
Параметр Endianness формата: Big
Режим смешивания: DVD-Video
Продолжительность: 14 м.
Вид битрейта: Постоянный
Битрейт: 448 Кбит/сек
Каналы: 6 каналов
Расположение каналов: Front: L C R, Side: L R, LFE
Частота: 48,0 КГц
Битовая глубина: 16 бит
Метод сжатия: С потерями
Размер потока: 46,3 Мбайт (5%)

Аудио #2
Идентификатор: 189 (0xBD)-129 (0x81)
Формат: AC-3
Формат/Информация: Audio Coding 3
Расширение режима: CM (complete main)
Параметр Endianness формата: Big
Режим смешивания: DVD-Video
Продолжительность: 14 м.
Вид битрейта: Постоянный
Битрейт: 448 Кбит/сек
Каналы: 6 каналов
Расположение каналов: Front: L C R, Side: L R, LFE
Частота: 48,0 КГц
Битовая глубина: 16 бит
Метод сжатия: С потерями
Размер потока: 46,3 Мбайт (5%)

Текст #1
Идентификатор: 189 (0xBD)-32 (0x20)
Формат: RLE
Формат/Информация: Run-length encoding
Режим смешивания: DVD-Video

Текст #2
Идентификатор: 189 (0xBD)-33 (0x21)
Формат: RLE
Формат/Информация: Run-length encoding
Режим смешивания: DVD-Video

Меню



Релиз от:




реклама партнёра


Вернуться к началу
 Профиль  
 
   Похожие торренты   Автор   Торрент   Размер 
В этой теме нет новых непрочитанных сообщений. Сладкий яд скорпиона / Bruna Surfistinha [драма, 2011] HDRip, Mvo [НТВ+]

salma3

91 | 5

1.37 ГБ

В этой теме нет новых непрочитанных сообщений. Сладкий яд скорпиона / Bruna Surfistinha [драма, 2011] BDRip 720p, Mvo+Sub [НТВ+]

salma3

64 | 7

5.63 ГБ

В этой теме нет новых непрочитанных сообщений. Christian XXX, Bruna Butterfly, Juliana Souza(TS Playground #20)(Jay Sin, Evil Angel) [2015 г., Transsexual, Shemale, Gonzo, 720p, SiteRip]

killerslava

15 | 26

1.17 ГБ

В этой теме нет новых непрочитанных сообщений. Сладкий трах [2014 г., Amateur, CamRip]

Dievas

6 | 4

274.82 МБ

В этой теме нет новых непрочитанных сообщений. Сладкий минетик [2014 г., Amateur, CamRip]

Dievas

4 | 3

37.49 МБ

В этой теме нет новых непрочитанных сообщений. Сладкий Анальчик [2014 г., Amateur, CamRip]

Dievas

5 | 4

52.11 МБ

В этой теме нет новых непрочитанных сообщений. Недооформлен Сладкий мёд / Sweet Honey (Taissia Shanti) (2014) SiteRip Данный торрент является блокированным, причина: недооформленный торрент

friizze

182 | 40

513.25 МБ


Начать новую тему Ответить на тему  [ 1 сообщение ] 




Для Мосгорсуда, Роскомнадзора и рекламодателей:: mosgorsud-torrent[собачка]yandex.ru