Торрент файл
скачать торрент магнет ссылка Добавлен: 10 май 2012, 13:22
Размер: 4.03 ГБ
Сидеров: 8
Личеров: 4
Статус: (Dracon)
Автор

СообщениеДобавлено: 10 май 2012, 13:22 

Не в сети
Зам. Админа
Аватара пользователя
Дата регистрации:
02 дек 2010, 12:39
Спасибо: 12538 / 214
Сообщения: 28076
Год выхода: 2011
Жанр
: Драма, мелодрама, комедия
Режиссер
: Лассе Халльстрём
В ролях: Юэн МакГрегор, Эмили Блант, Кристин Скотт Томас, Амр Вакид, Катрин Стэдмен, Том Мисон, Рэйчел Стирлинг, Том Бирд, Джилл Бейкер, Конлет Хилл

О фильме:
Доктор Альфред Джонс из Лондонского Центра рыболовства получает от некоего таинственного шейха странное предложение: ввести в Йемене спортивные соревнования по ловле лосося. Доктор Джонс отказывается, но абсурдный с научной точки зрения проект попадается на глаза британским политикам, видящим в предложении шейха почти неограниченные возможности.

И тут начинается бурная эпистолярная деятельность всех персонажей от премьер-министра до стенографисток, ловля лосося в которой не имеет ровно никакого значения, кроме как отвлечь общественность от более важных вещей, например, от войны в Ираке. Доводы доктора Джонса о громком провале громкого проекта никого не волнуют, впрочем, герой продолжает пытаться жить своей жизнью, будучи сначала пешкой, а затем и жертвой политической игры.


Страна
: Великобритания
Студия
: Kudos Film and Television, BBC Films, Davis Films
Продолжительность
: 01:42:44
Перевод
: Профессиональный (многоголосый) [Лицензия]

Кодек
: MPEG2
Качество
: DVD5
Видео
: PAL 16:9, (720x576)(1024Х576), 5036 kb/s
Звук
: Russian, AC3, (6 ch), 384 kb/s

General
Complete name : C:UsersСергейDownloadsОбычные фильмыРыба моей мечтыРыба.моей.мечты.2011.DVD5VIDEO_TSVTS_01_1.VOB
Format : MPEG-PS
File size : 1 024 MiB
Duration : 25mn 53s
Overall bit rate mode : Variable
Overall bit rate : 5 530 Kbps

Video
ID : 224 (0xE0)
Format : MPEG Video
Format version : Version 2
Format profile : Main@Main
Format settings, BVOP : Yes
Format settings, Matrix : Custom
Duration : 25mn 53s
Bit rate mode : Variable
Bit rate : 5 036 Kbps
Maximum bit rate : 8 000 Kbps
Width : 720 pixels
Height : 576 pixels
Display aspect ratio : 16:9
Frame rate : 25.000 fps
Standard : PAL
Color space : YUV
Chroma subsampling : 4:2:0
Bit depth : 8 bits
Scan type : Interlaced
Scan order : Top Field First
Compression mode : Lossy
Bits/(Pixel*Frame) : 0.486
Stream size : 933 MiB (91%)

Audio
ID : 189 (0xBD)-128 (0x80)
Format : AC-3
Format/Info : Audio Coding 3
Mode extension : CM (complete main)
Muxing mode : DVD-Video
Duration : 25mn 52s
Bit rate mode : Constant
Bit rate : 384 Kbps
Channel(s) : 6 channels
Channel positions : Front: L C R, Side: L R, LFE
Sampling rate : 48.0 KHz
Bit depth : 16 bits
Compression mode : Lossy
Stream size : 71.1 MiB (7%)

Menu




реклама партнёра


Вернуться к началу
 Профиль  
 
   Похожие торренты   Автор   Торрент   Размер 
В этой теме нет новых непрочитанных сообщений. Свидание моей мечты / Employee of the Month [мелодрама, комедия, 2006] BDRemux 1080p, Dub

salma3

54 | 31

16.85 ГБ

В этой теме нет новых непрочитанных сообщений. Дедушка моей мечты (Александр Стриженов) [комедия, семейный, 2015] WEB-DL 1080p [iTunes]

Dracon

28 | 3

3.41 ГБ

В этой теме нет новых непрочитанных сообщений. Дедушка моей мечты (Александр Стриженов) [комедия, семейный, 2015] WEB-DLRip [iTunes]

Dracon

7433 | 578

1.46 ГБ

В этой теме нет новых непрочитанных сообщений. Дедушка моей мечты (Александр Стриженов) [комедия, семейный, 2015] WEB-DL 720p [iTunes]

Dracon

1935 | 113

3.06 ГБ

В этой теме нет новых непрочитанных сообщений. Мечты сбываются! / One Chance [драма, комедия, мелодрама, биография, 2013] HDRip, Mvo

Dracon

64 | 2

1.46 ГБ

В этой теме нет новых непрочитанных сообщений. Мечты сбываются! / One Chance [драма, комедия, мелодрама, биография, 2013] HDRip, Mvo [Лицензия]

Dracon

430 | 12

1.46 ГБ

В этой теме нет новых непрочитанных сообщений. Мечты сбываются! / One Chance [драма, комедия, мелодрама, биография, 2013] BDRip 720p, Mvo [Лицензия]

Dracon

12 | 5

4.7 ГБ


Начать новую тему Ответить на тему  [ 1 сообщение ] 




Для Мосгорсуда, Роскомнадзора и рекламодателей:: mosgorsud-torrent[собачка]yandex.ru