Торрент файл
скачать торрент магнет ссылка Добавлен: 08 апр 2012, 18:50
Размер: 4.35 ГБ
Сидеров: 12
Личеров: 3
Статус: (drink)
Автор

СообщениеДобавлено: 08 апр 2012, 18:50 

Не в сети
Релизёр
Дата регистрации:
02 апр 2012, 20:33
Спасибо: 345 / 0
Сообщения: 1461
Голодный кролик атакует / Seeking Justice (2011) DVD5



Информация о фильме
Название: Голодный кролик атакует
Оригинальное название: Seeking Justice
Год выхода: 2011
Слоган: «Месть всегда имеет свою цену»
Жанр: боевик, триллер, драма

Режиссер: Роджер Дональдсон

В ролях: Николас Кейдж, Дженьюэри Джонс, Гай Пирс, Дженнифер Карпентер, Айрон Э. Синглтон, Хэролд Перрино, Ксандер Беркли, Джо Крест, Дэвид Дженсен

Описание: Фильм сфокусируется на человеке, супруга которого становится жертвой жестокого преступления, и он внедряется в тайную организацию мстителей.




Страна: США
Студия: Endgame Entertainment
Время: 01:40:34
Перевод: Профессиональный (дублированный)

Файл
Кодек: MPEG-2
Качество: DVD5 (источник: DVD9)
Видео: 720x576@1024x576 (PAL 16:9), 25 fps, 5738 kbps
Звук: AC3, 6 ch, 448 kbps
Субтитры: Не имеются
Семпл: скачать

Size: 4.35 Gb ( 4 558 376,00 KBytes ) - DVD-5
Enabled regions: 1, 2, 3, 4, 5, 6, 7, 8

VTS_01 :
Play Length: 00:00:00
Video: PAL 4:3 (720x576) VBR
Subtitles:
English
English

VTS_02 :
Play Length: 00:00:00
Video: PAL 16:9 (720x576) VBR, Auto Letterboxed
Audio:
Not specified (Dolby AC3, 2 ch)
Subtitles:
Not specified

VTS_03 :
Play Length: 00:00:00
Video: PAL 16:9 (720x576) VBR, Auto Letterboxed
Audio:
Not specified (Dolby AC3, 2 ch)
Not specified (Dolby AC3, 2 ch)
Subtitles:
Not specified

VTS_04 :
Play Length: 01:40:34
Video: PAL 16:9 (720x576) VBR, Auto Letterboxed
Audio:
Russian (Dolby AC3, 6 ch)

VTS_05 :
Play Length: 00:00:00
Video: PAL 16:9 (720x576) VBR, Auto Letterboxed
Audio:
Not specified (Dolby AC3, 2 ch)
Subtitles:
Not specified

VTS_06 :
Play Length: 00:00:00
Video: PAL 16:9 (720x576) VBR, Auto Letterboxed
Audio:
Not specified (Dolby AC3, 6 ch)
Subtitles:
Not specified

VTS_07 :
Play Length: 00:00:00
Video: PAL 16:9 (720x576) VBR, Auto Letterboxed
Audio:
Not specified (Dolby AC3, 6 ch)
Subtitles:
Not specified

VTS_08 :
Play Length: 00:00:00
Video: PAL 16:9 (720x576) VBR, Auto Letterboxed
Audio:
Not specified (Dolby AC3, 2 ch)
Subtitles:
Not specified

VTS_09 :
Play Length: 00:00:00
Video: PAL 16:9 (720x576) VBR, Auto Letterboxed
Audio:
Not specified (Dolby AC3, 2 ch)
Subtitles:
Not specified

VTS_10 :
Play Length: 00:00:00
Video: PAL 16:9 (720x576) VBR, Auto Letterboxed
Audio:
Not specified (Dolby AC3, 2 ch)

* Menus Information *

VIDEO_TS Menu
Video:
NTSC 4:3 (720x480) VBR
Auto Pan&Scan, Auto Letterboxed
English Language Unit :
Title Menu

VTS_01 Menu
Video:
PAL 16:9 (720x576) VBR
Auto Letterboxed
Audio:
Not specified (Dolby AC3, 2 ch)
English Language Unit :
Root Menu

VTS_02 Menu
Video:
PAL 4:3 (720x576) VBR
English Language Unit :
Root Menu

VTS_03 Menu
Video:
PAL 4:3 (720x576) VBR
English Language Unit :
Root Menu

VTS_04 Menu
Video:
PAL 4:3 (720x576) VBR
English Language Unit :
Root Menu
Chapter (PTT) Menu

VTS_05 Menu
Video:
PAL 4:3 (720x576) VBR
English Language Unit :
Root Menu

VTS_06 Menu
Video:
PAL 4:3 (720x576) VBR
English Language Unit :
Root Menu

VTS_07 Menu
Video:
PAL 4:3 (720x576) VBR
English Language Unit :
Root Menu

VTS_08 Menu
Video:
PAL 4:3 (720x576) VBR
English Language Unit :
Root Menu

VTS_09 Menu
Video:
PAL 4:3 (720x576) VBR
English Language Unit :
Root Menu

VTS_10 Menu
Video:
PAL 4:3 (720x576) VBR
English Language Unit :
Root Menu
General
Name: VTS_04_1.VOB
Format: MPEG-PS
File size: 1 024 MiB
Duration: 22mn 40s
Overall bit rate: 6 312 Kbps

Video
ID: 224 (0xE0)
Format: MPEG Video
Format version: Version 2
Format profile: Main@Main
Format settings, BVOP: Yes
Format settings, Matrix: Default
Format settings, GOP: M=3, N=12
Duration: 22mn 40s
Bit rate mode: Variable
Bit rate: 5 738 Kbps
Nominal bit rate: 8 000 Kbps
Width: 720 pixels
Height: 576 pixels
Display aspect ratio: 16:9
Frame rate: 25.000 fps
Standard: PAL
Color space: YUV
Chroma subsampling: 4:2:0
Bit depth: 8 bits
Scan type: Progressive
Bits/(Pixel*Frame): 0.553
Stream size: 931 MiB (91%)

Audio
ID: 128 (0x80)
Format: AC-3
Format/Info: Audio Coding 3
Mode extension: CM (complete main)
Duration: 22mn 40s
Bit rate mode: Constant
Bit rate: 448 Kbps
Channel(s): 6 channels
Channel positions: Front: L C R, Side: L R, LFE
Sampling rate: 48.0 KHz
Bit depth: 16 bits
Stream size: 72.7 MiB (7%)





реклама партнёра


Вернуться к началу
 Профиль Отправить личное сообщение  
 
   Похожие торренты   Автор   Торрент   Размер 
В этой теме нет новых непрочитанных сообщений. Наемники / Mercenary for Justice [Боевик, триллер, драма, 2006] HDRip, Mvo

salma3

0 | 2

1.46 ГБ

В этой теме нет новых непрочитанных сообщений. Перекресток смерти / True Justice [Боевик, триллер, драма, криминал, 2012] BDRip 720p, Dub [РЕН ТВ]

salma3

16 | 5

3.17 ГБ

В этой теме нет новых непрочитанных сообщений. Перекресток смерти / True Justice [Боевик, триллер, драма, криминал, 2012] BDRemux 1080p, Dub [РЕН ТВ]

salma3

5 | 7

22.22 ГБ

В этой теме нет новых непрочитанных сообщений. Бэтмен против Супермена: На заре справедливости / Batman v Superman: Dawn of Justice [фантастика, боевик, приключения, 2016] DVD5, Dub+Sub

salma3

28 | 14

4.37 ГБ

В этой теме нет новых непрочитанных сообщений. Некая справедливость / A Certain Justice [боевик, драма, 2014] HDRip, Dvo

Dracon

487 | 13

1.37 ГБ

В этой теме нет новых непрочитанных сообщений. Во имя справедливости / Out for Justice [боевик, криминал, драма, 1991] HDRip, Dub

salma3

42 | 8

1.45 ГБ

В этой теме нет новых непрочитанных сообщений. Некая справедливость / A Certain Justice [боевик, драма, 2014] BDRip 1080p, Dvo+Sub

salma3

90 | 13

6.09 ГБ


Начать новую тему Ответить на тему  [ 1 сообщение ] 




Для Мосгорсуда, Роскомнадзора и рекламодателей:: mosgorsud-torrent[собачка]yandex.ru